<?xml version="1.0" standalone="no"?>
<!DOCTYPE svg PUBLIC "-//W3C//DTD SVG 1.1//EN" "http://www.w3.org/Graphics/SVG/1.1/DTD/svg11.dtd" >
<svg xmlns="http://www.w3.org/2000/svg" xmlns:xlink="http://www.w3.org/1999/xlink" version="1.1">
<metadata>
Created by FontForge 20161116 at Fri Jan  1 01:00:00 1904
 By Jimmy Wärting
</metadata>
<defs>
<font id="Univers-Light-Normal" horiz-adv-x="276" >
  <font-face 
    font-family="Univers-Light-Normal"
    font-weight="500"
    font-stretch="normal"
    units-per-em="1000"
    panose-1="0 0 0 0 0 0 0 0 0 0"
    ascent="800"
    descent="-200"
    x-height="496"
    cap-height="724"
    bbox="-55 -199.022 1000 960"
    underline-thickness="50"
    underline-position="-105"
    unicode-range="U+0020-F002"
  />
<missing-glyph 
 />
    <glyph glyph-name=".notdef" 
 />
    <glyph glyph-name="glyph1" horiz-adv-x="0" 
 />
    <glyph glyph-name="glyph2" 
 />
    <glyph glyph-name="space" unicode=" " 
 />
    <glyph glyph-name="space" unicode="&#xa0;" 
 />
    <glyph glyph-name="exclam" unicode="!" horiz-adv-x="386" 
d="M150 94h86v-94h-86v94v0zM165 173l-15 559h86l-16 -559h-55v0z" />
    <glyph glyph-name="quotedbl" unicode="&#x22;" 
d="M55 717h63v-229h-63v229v0zM228 717v-229h-63v229h63v0z" />
    <glyph glyph-name="numbersign" unicode="#" horiz-adv-x="551" 
d="M157 417h-110v63h118l32 213h63l-32 -213h134l32 213h63l-32 -213h103v-63h-111l-15 -134h102v-63h-110l-32 -220h-63l32 220h-134l-32 -220h-63l32 220h-110v63h118l15 134v0zM354 417h-134l-15 -134h134l15 134v0z" />
    <glyph glyph-name="dollar" unicode="$" horiz-adv-x="551" 
d="M252 315q-16 4 -35.5 10.5t-39.5 15.5q-46 20 -84 58t-38 112q0 10 1 20t3 20q13 56 60.5 104t132.5 53v48h55v-47q101 -7 149 -59t48 -123l-71 1q0 8 -2 18t-6 20q-11 29 -40 54t-78 25v-275q101 -30 157 -68.5t56 -121.5q0 -87 -59.5 -137t-130.5 -58q-6 0 -11.5 -0.5
t-11.5 -0.5v-47h-55v47q-82 6 -147.5 51t-65.5 145l79 1q0 -48 29 -84.5t105 -42.5v261v0zM307 299v-244q8 -1 16 0t17 3q41 10 75 41.5t34 80.5q0 37 -24.5 59t-53.5 35q-19 8 -36 13.5t-28 10.5v1zM252 646q-59 -7 -92.5 -43.5t-33.5 -83.5q0 -53 36.5 -85t89.5 -49v261v0
z" />
    <glyph glyph-name="percent" unicode="%" horiz-adv-x="1000" 
d="M559 173q0 76 44.5 132t120.5 56q77 0 117.5 -59t40.5 -130v-1.5v-1.5q-1 -70 -35.5 -127.5t-122.5 -57.5t-126 57.5t-39 127.5v1.5v1.5v1zM827 173q0 7 -1 15t-2 17q-8 41 -34.5 75t-65.5 34q-47 0 -74.5 -41.5t-27.5 -100.5t27.5 -100.5t74.5 -41.5t75 41.5t28 100.5v1
zM654 709h63l-394 -709h-63l394 709v0zM110 512q0 88 38 129.5t83 53.5q12 2 23 3.5t22 1.5q12 0 25 -2.5t27 -7.5q42 -16 77.5 -57t35.5 -108v-3.5v-3.5v-3.5v-3.5q-6 -94 -50 -141.5t-115 -47.5t-118.5 47.5t-47.5 141.5v1zM378 512q0 66 -26 99t-58 40q-4 1 -9 1.5
t-9 0.5q-49 0 -72 -34t-29 -75q-1 -9 -1.5 -17t-0.5 -16t0.5 -16t2.5 -17q7 -41 31.5 -75t68.5 -34q47 0 69 29t28 64q3 13 4 25.5t1 23.5v1z" />
    <glyph glyph-name="ampersand" unicode="&#x26;" horiz-adv-x="717" 
d="M236 433q-27 29 -46 53t-31 47q-8 17 -12.5 34.5t-4.5 37.5q0 53 37.5 93.5t119.5 40.5q65 0 116.5 -29.5t56.5 -88.5v-2.5t1 -2.5v-3v-3q0 -50 -43 -98.5t-99 -87.5l212 -219q13 24 21.5 55t13.5 62q4 26 6 50.5t2 46.5q0 15 -0.5 28.5t-2.5 23.5l78 1q0 -25 -1.5 -50.5
t-4.5 -50.5q-7 -64 -23 -122.5t-41 -92.5l141 -156h-94l-87 94q-53 -53 -108 -77.5t-120 -24.5q-16 0 -32 1.5t-32 3.5q-77 12 -140.5 59t-63.5 140q0 64 34.5 106.5t75.5 74.5q19 15 37.5 28.5t33.5 26.5v1zM504 142l-228 244q-11 -10 -23 -20t-24 -21q-35 -30 -64 -66
t-29 -79q0 -9 1.5 -18t4.5 -18q16 -54 65 -81.5t108 -28.5q9 0 18.5 0.5t18.5 2.5q43 6 83 27t69 57v1zM291 472q18 11 32.5 23.5t25.5 25.5q21 24 31.5 47t10.5 42q0 16 -7.5 29t-21.5 21q-17 10 -33.5 15t-30.5 5q-21 0 -38.5 -9t-31.5 -26q-6 -7 -8.5 -16t-2.5 -20
q0 -13 4 -28t11 -30q10 -22 25 -43t34 -37v1z" />
    <glyph glyph-name="quotesingle" unicode="'" 
d="M126 724h87l-79 -212h-55l47 212v0z" />
    <glyph glyph-name="parenleft" unicode="(" 
d="M173 724h55q-11 -29 -20.5 -57t-17.5 -57q-23 -81 -35.5 -158t-12.5 -138q0 -76 19.5 -180.5t66.5 -227.5h-55q-7 17 -14.5 35.5t-15.5 38.5q-14 35 -27.5 75t-24.5 80q-12 47 -20 93t-8 86q0 46 6.5 90t17.5 87q15 55 37 112t49 120v1z" />
    <glyph glyph-name="parenright" unicode=")" 
d="M39 724h48q30 -64 52 -121t36 -112q11 -43 16.5 -87t5.5 -90t-5.5 -90t-15.5 -87q-14 -55 -34.5 -111.5t-47.5 -119.5h-55q20 55 36 104t28 97q11 49 17 99.5t6 107.5t-7 107.5t-19 99.5q-12 48 -27.5 97.5t-33.5 104.5v1z" />
    <glyph glyph-name="asterisk" unicode="*" horiz-adv-x="551" 
d="M236 575l-86 118l63 31l63 -126l63 126l63 -31l-87 -118l142 8v-63l-142 8l87 -119l-63 -39l-63 142l-63 -142l-63 39l86 119l-142 -8v63l142 -8v0z" />
    <glyph glyph-name="plus" unicode="+" horiz-adv-x="654" 
d="M299 283v229h63v-229h221v-63h-221v-220h-63v220h-220v63h220v0z" />
    <glyph glyph-name="comma" unicode="," 
d="M102 94h87l-79 -212h-55l47 212v0z" />
    <glyph glyph-name="hyphen" unicode="-" 
d="M8 236v63h260v-63h-260v0z" />
    <glyph glyph-name="period" unicode="." 
d="M94 94h87v-94h-87v94v0z" />
    <glyph glyph-name="slash" unicode="/" 
d="M228 740h71l-252 -834h-71l252 834v0z" />
    <glyph glyph-name="zero" unicode="0" horiz-adv-x="551" 
d="M47 378q0 24 2 51t7 54q15 90 65 165t155 75q123 0 172.5 -86t59.5 -189q2 -20 3 -40t1 -39q0 -171 -50 -274t-186 -103q-132 0 -177 102t-51 226q0 14 -0.5 28.5t-0.5 28.5v1zM433 370q-5 167 -45.5 224t-87.5 64q-6 1 -12 1.5t-12 0.5q-83 0 -117.5 -70.5t-40.5 -212.5
v-26.5t1 -26.5q3 -102 33 -186t124 -84q82 0 120 77.5t38 198.5v12.5v13.5q0 3 -0.5 6.5t-0.5 6.5v1z" />
    <glyph glyph-name="one" unicode="1" horiz-adv-x="551" 
d="M268 394v236q-1 -3 -2.5 -4.5l-3.5 -3.5q-24 -27 -63 -53t-89 -42v64q47 22 90.5 51.5t67.5 65.5l71 1v-709h-71v394v0z" />
    <glyph glyph-name="two" unicode="2" horiz-adv-x="551" 
d="M47 0v63q24 18 68.5 60t93.5 92q10 11 20.5 21.5t20.5 21.5q47 51 85 98t51 76q11 26 16.5 47.5t5.5 40.5q0 50 -29.5 76t-64.5 35q-12 3 -23.5 4.5t-22.5 1.5t-23.5 -2.5t-25.5 -7.5q-35 -14 -64 -45t-29 -79l-71 1v5v6q-1 84 66 138.5t147 54.5q90 0 139 -37t68 -81
q7 -17 10 -33t3 -30q-1 -27 -9 -54t-21 -55q-28 -58 -73 -114t-93 -105q-42 -42 -82 -77.5t-68 -59.5l354 1v-63h-449v0z" />
    <glyph glyph-name="three" unicode="3" horiz-adv-x="551" 
d="M220 402q11 -3 22 -4.5t21 -1.5q65 0 105 37.5t41 82.5v1.5v1.5q0 46 -25.5 72.5t-55.5 39.5q-20 8 -38.5 11t-29.5 3q-55 0 -87 -25t-45 -55q-5 -12 -7.5 -24t-2.5 -22l-79 1q0 77 46 119.5t101 58.5q19 5 38 7.5t36 2.5q92 0 160 -52.5t68 -125.5v-2.5v-2.5v-3v-3
q0 -13 -2 -27.5t-7 -29.5q-11 -34 -41 -63.5t-92 -37.5q57 -15 89 -44t46 -61q8 -18 11.5 -35.5t3.5 -32.5v-1.5v-1.5q-7 -76 -60 -138.5t-176 -62.5q-118 0 -173.5 58.5t-55.5 131.5v6.5v7.5l71 1q5 -68 39.5 -99.5t74.5 -39.5q9 -2 18 -3t18 -1q77 0 121 38.5t44 103.5
q-5 67 -42.5 102t-109.5 35q-10 0 -21.5 -0.5t-23.5 -2.5v80v0z" />
    <glyph glyph-name="four" unicode="4" horiz-adv-x="551" 
d="M339 157h-323v63l307 473h86v-473h111v-63h-111v-157h-70v157v0zM339 220v386l-237 -386h237v0z" />
    <glyph glyph-name="five" unicode="5" horiz-adv-x="551" 
d="M87 693h385v-63h-322l-8 -244q23 28 58.5 49t82.5 21q95 0 158 -65t63 -172q0 -106 -61 -170.5t-167 -64.5q-94 0 -154.5 46t-66.5 134l79 1q0 -10 1.5 -20t5.5 -20q10 -29 41.5 -54t93.5 -25q71 0 114 45.5t43 127.5q0 77 -42.5 125.5t-107.5 48.5q-47 0 -88.5 -29
t-52.5 -82l-71 1l16 410v0z" />
    <glyph glyph-name="six" unicode="6" horiz-adv-x="551" 
d="M110 339q16 37 41.5 59t53.5 33q24 10 47 13.5t39 3.5q95 0 158 -63t63 -158q0 -106 -53 -174.5t-183 -68.5q-117 0 -165.5 66t-62.5 145q-7 41 -8 80.5t-1 69.5q0 213 75 288t169 75q108 0 160 -49.5t60 -109.5q0 -5 0.5 -10.5t0.5 -11.5l-79 1q-6 52 -40.5 84.5
t-93.5 32.5q-11 0 -23 -2t-25 -6q-50 -18 -91.5 -85t-41.5 -214v1zM433 228q0 7 -1 15.5t-2 17.5q-10 46 -44.5 85t-94.5 39q-76 0 -120.5 -47.5t-44.5 -118.5q0 -76 37.5 -124.5t119.5 -48.5q67 0 109 44t42 118v4.5v5.5q-1 2 -1 4.5v4.5v1z" />
    <glyph glyph-name="seven" unicode="7" horiz-adv-x="551" 
d="M47 693h449v-63l-268 -630h-78l267 630h-370v63v0z" />
    <glyph glyph-name="eight" unicode="8" horiz-adv-x="551" 
d="M181 370q-53 11 -89.5 51.5t-36.5 105.5q0 95 64 142t164 47q101 0 165 -47t64 -142q0 -65 -40.5 -105.5t-93.5 -52.5q59 -18 100.5 -61t41.5 -120q0 -88 -62 -146t-175 -58q-112 0 -174 55t-62 149q0 59 34.5 108.5t99.5 72.5v1zM449 189q0 9 -1.5 20t-4.5 22
q-12 40 -49 73.5t-111 33.5t-111 -33.5t-48 -73.5q-3 -11 -4.5 -22t-1.5 -21q0 -59 44.5 -100.5t120.5 -41.5q64 0 108 34t56 75q1 6 2 11.5t1 11.5v2.5v2.5q-1 1 -1 2.5v2.5v1zM441 528q0 59 -39 90t-85 39q-9 2 -17.5 2.5t-16.5 0.5q-9 0 -17.5 -1t-17.5 -2
q-46 -8 -84 -39.5t-38 -90.5t40.5 -92.5t116.5 -33.5q77 0 117.5 36.5t40.5 89.5v1z" />
    <glyph glyph-name="nine" unicode="9" horiz-adv-x="551" 
d="M441 370q-23 -44 -59.5 -65t-75.5 -27q-9 -2 -19 -2.5t-19 -0.5q-107 0 -164 65t-58 153v4.5t1 4.5v4.5v4.5q6 95 73 153.5t156 58.5q115 0 165.5 -62.5t66.5 -138.5q8 -40 10 -78t2 -67v-13.5v-13.5q1 -171 -65 -268.5t-179 -97.5q-118 0 -169.5 53t-51.5 135l71 1
q0 -65 42.5 -92t107.5 -27q71 0 118 72t47 243v1zM433 496q0 9 -1.5 20.5t-4.5 22.5q-13 45 -50 83t-94 38q-76 0 -116.5 -43t-40.5 -114q0 -76 32.5 -120.5t109.5 -44.5q65 0 115 40.5t50 116.5v1z" />
    <glyph glyph-name="colon" unicode=":" 
d="M94 94h87v-94h-87v94v0zM94 512h87v-95h-87v95v0z" />
    <glyph glyph-name="semicolon" unicode=";" 
d="M110 87h87l-79 -213h-55l47 213v0zM102 512h87v-95h-87v95v0z" />
    <glyph glyph-name="less" unicode="&#x3c;" horiz-adv-x="654" 
d="M79 220v63l504 229v-71l-410 -189l410 -197v-71l-504 236v0z" />
    <glyph glyph-name="equal" unicode="=" horiz-adv-x="654" 
d="M79 189h504v-63h-504v63v0zM79 386h504v-63h-504v63v0z" />
    <glyph glyph-name="greater" unicode="&#x3e;" horiz-adv-x="654" 
d="M583 220l-512 -236v79l409 189l-409 189v79l512 -237v-63v0z" />
    <glyph glyph-name="question" unicode="?" horiz-adv-x="496" 
d="M244 94v-94h-79v94h79v0zM173 165v118q0 19 11 37.5t27 36.5q12 12 25.5 24.5t27.5 25.5q32 31 59.5 65.5t30.5 77.5v4.5v4.5q0 63 -42.5 89.5t-92.5 29.5q-5 1 -9.5 1h-8.5q-30 0 -56 -5.5t-43 -13.5v72q9 2 18.5 4t18.5 3q19 4 37.5 5.5t36.5 1.5q85 0 148.5 -42.5
t63.5 -145.5q0 -56 -29.5 -98t-64.5 -75q-21 -20 -40.5 -38t-33.5 -36q-9 -13 -15 -26t-6 -26v-94h-63v0z" />
    <glyph glyph-name="at" unicode="@" horiz-adv-x="795" 
d="M543 575h71l-86 -268q-2 -7 -5 -15.5t-6 -17.5q-1 -4 -2.5 -8.5t-2.5 -8.5q-3 -9 -5 -18t-2 -17q0 -11 5 -18.5t18 -7.5q40 0 74.5 38.5t55.5 84.5q13 27 20 53t7 44q0 113 -69.5 182.5t-153.5 87.5q-13 3 -26.5 4.5t-26.5 1.5q-135 0 -217.5 -91.5t-95.5 -201.5
q-1 -10 -1.5 -19.5t-0.5 -18.5q0 -136 92 -229.5t216 -93.5q25 0 54 4.5t59 15.5q41 14 80 42t66 72l71 1q-39 -75 -96 -116t-117 -57q-30 -9 -59.5 -12.5t-57.5 -3.5q-162 6 -266.5 115t-104.5 264v6.5v7.5q7 140 72 218t142 114q46 21 89.5 29.5t74.5 8.5h10t9 -1
q120 -7 220 -92.5t100 -221.5q-4 -99 -44.5 -164t-87.5 -98q-27 -19 -52 -28t-44 -9q-36 0 -62.5 14.5t-32.5 32.5q-12 -12 -27.5 -21t-32.5 -15q-16 -5 -31 -8t-27 -3q-65 6 -99.5 49.5t-34.5 107.5q0 16 2 33t6 34q21 87 85 160t143 73q42 0 71.5 -16t47.5 -40l15 41v0z
M457 346q14 29 20 54.5t6 45.5q0 40 -19 60.5t-47 20.5q-14 0 -31.5 -7t-35.5 -21q-37 -27 -67.5 -78.5t-30.5 -122.5q0 -50 17.5 -69.5t38.5 -23.5q4 0 7.5 -0.5t7.5 -0.5q9 0 18.5 3t18.5 9q28 16 53.5 51t43.5 78v1z" />
    <glyph glyph-name="A" unicode="A" horiz-adv-x="661" 
d="M291 724h79l291 -724h-78l-79 197h-354l-71 -197h-79l291 724v0zM480 260l-149 401l-158 -401h307v0z" />
    <glyph glyph-name="B" unicode="B" horiz-adv-x="661" 
d="M94 724h252q107 -1 160 -50t53 -132q0 -64 -36.5 -105.5t-89.5 -59.5q8 -2 16.5 -4t17.5 -5q46 -16 85 -55.5t39 -124.5q0 -8 -0.5 -16.5t-2.5 -17.5q-8 -58 -55 -106t-155 -48h-284v724v0zM165 346v-283h181q89 -1 127.5 34.5t38.5 106.5q0 83 -60 112t-161 29l-126 1v0
zM165 661v-252h142q95 -1 134 33t39 92q0 59 -34 92.5t-123 33.5l-158 1v0z" />
    <glyph glyph-name="C" unicode="C" horiz-adv-x="661" 
d="M543 559q-6 52 -51 88.5t-122 36.5q-124 -6 -180 -98.5t-56 -216.5q0 -16 1 -32.5t4 -33.5q12 -93 66.5 -171t164.5 -78q83 0 123.5 30.5t57.5 95.5l79 1q-18 -83 -77 -136t-183 -53q-165 0 -240 117.5t-75 259.5t72 257t243 121q10 0 21 -0.5t21 -1.5q74 -7 137 -48
t73 -139l-79 1v0z" />
    <glyph glyph-name="D" unicode="D" horiz-adv-x="717" 
d="M87 724h236q183 -1 260.5 -116t77.5 -263q-5 -165 -97.5 -255t-240.5 -90h-236v724v0zM157 661v-598h166q109 -1 188.5 72t79.5 224v9.5v8.5q0 136 -81 209.5t-234 73.5l-119 1v0z" />
    <glyph glyph-name="E" unicode="E" horiz-adv-x="606" 
d="M102 724h433v-63h-362v-259h347v-63h-347v-276h378v-63h-449v724v0z" />
    <glyph glyph-name="F" unicode="F" horiz-adv-x="551" 
d="M94 724h410v-63h-339v-259h323v-63h-323v-339h-71v724v0z" />
    <glyph glyph-name="G" unicode="G" horiz-adv-x="717" 
d="M378 370h252v-339q-27 -16 -57 -24.5t-61 -13.5t-61 -7t-57 -2q-160 0 -249.5 106t-89.5 271q0 29 4.5 62.5t14.5 67.5q27 90 97 165t199 75q107 0 176.5 -53t75.5 -136l-79 1q-8 50 -41.5 78t-72.5 39q-15 4 -30 6t-29 2q-112 0 -174 -88.5t-62 -218.5q0 -167 65 -233
t143 -78q13 -2 26 -3t26 -1q18 0 39 1.5t44 5.5q22 4 43 10t39 15v229h-181v63v0z" />
    <glyph glyph-name="H" unicode="H" horiz-adv-x="717" 
d="M94 724h71v-315h386v315h71v-724h-71v346h-386v-346h-71v724v0z" />
    <glyph glyph-name="I" unicode="I" 
d="M102 724h71v-724h-71v724v0z" />
    <glyph glyph-name="J" unicode="J" horiz-adv-x="496" 
d="M346 724h71v-511q0 -107 -51 -164t-169 -57q-82 0 -131.5 56t-49.5 132l71 1q11 -60 41 -93.5t100 -33.5q53 0 85.5 37.5t32.5 120.5v512v0z" />
    <glyph glyph-name="K" unicode="K" horiz-adv-x="606" 
d="M102 724h71v-315l315 315h87l-331 -330l362 -394h-94l-339 362v-362h-71v724v0z" />
    <glyph glyph-name="L" unicode="L" horiz-adv-x="551" 
d="M94 724h71v-661h363v-63h-434v724v0z" />
    <glyph glyph-name="M" unicode="M" horiz-adv-x="937" 
d="M87 724h110l268 -630l267 630h111v-724h-71v654l-268 -654h-79l-268 654v-654h-70v724v0z" />
    <glyph glyph-name="N" unicode="N" horiz-adv-x="717" 
d="M87 724h78l402 -630v630h71v-724h-87l-394 622v-622h-70v724v0z" />
    <glyph glyph-name="O" unicode="O" horiz-adv-x="772" 
d="M63 370q0 159 78.5 268t244.5 109q148 0 230 -102.5t97 -226.5q2 -14 3 -28.5t1 -28.5v-11.5v-10.5q-6 -131 -83.5 -239t-247.5 -108q-177 0 -247 108.5t-76 268.5v1zM134 370q0 -131 61 -223.5t191 -92.5t191 85.5t61 221.5q0 130 -64 226.5t-188 96.5
q-105 0 -169.5 -77.5t-78.5 -170.5q-2 -12 -3 -24.5t-1 -24.5v-8.5v-9.5v1z" />
    <glyph glyph-name="P" unicode="P" horiz-adv-x="606" 
d="M94 724h229q95 -1 173.5 -47t78.5 -158t-79.5 -158.5t-180.5 -46.5l-150 1v-315h-71v724v0zM165 661v-283h150q83 -1 136 31.5t53 109.5q0 71 -42 106t-131 35l-166 1v0z" />
    <glyph glyph-name="Q" unicode="Q" horiz-adv-x="772" 
d="M63 370q0 153 84.5 261t238.5 108t239.5 -99.5t91.5 -270.5q0 -95 -29 -165t-64 -111q-11 -13 -21 -22.5t-20 -16.5q47 6 84.5 7t72.5 1v-62h-142h-29t-24 1t-20 1.5t-17 0.5t-15 -1t-13 -2q-16 -5 -36 -10t-41 -6h-4.5h-4.5q-189 0 -260 118.5t-71 266.5v1zM134 370
q6 -149 74 -236.5t186 -87.5q112 0 178 90.5t66 232.5t-72.5 224.5t-179.5 82.5q-130 -6 -188 -100t-64 -207v1z" />
    <glyph glyph-name="R" unicode="R" horiz-adv-x="661" 
d="M102 717h276q101 -1 149 -55.5t48 -119.5q0 -76 -29.5 -111.5t-88.5 -53.5q26 -4 40 -12t22 -16q3 -4 5.5 -7t4.5 -6q2 -1 3.5 -3t2.5 -3q18 -21 25 -68t10 -100q0 -2 0.5 -4t0.5 -4q3 -48 8 -90.5t19 -63.5h-70q-15 18 -20 54t-8 78q0 8 -0.5 16t-1.5 16
q-5 68 -24.5 124.5t-87.5 56.5l-213 1v-346h-71v717v0zM173 661v-252h173q71 -1 114.5 30t43.5 95q0 65 -38 95.5t-127 30.5l-166 1v0z" />
    <glyph glyph-name="S" unicode="S" horiz-adv-x="606" 
d="M126 197q6 -66 46.5 -108.5t110.5 -42.5q103 0 147.5 41.5t45.5 91.5q0 40 -24 75.5t-66 51.5q-13 5 -26.5 9t-26.5 8q-9 3 -17 5.5t-17 5.5q-85 27 -156.5 71.5t-71.5 152.5q0 71 63 130t157 59q101 0 170 -45t74 -128l-70 1q0 40 -45.5 74.5t-128.5 34.5
q-67 -4 -106 -43t-39 -86q0 -32 19.5 -62.5t62.5 -52.5q19 -9 38.5 -17t39.5 -15q13 -5 25.5 -9.5t24.5 -8.5q78 -27 136.5 -64.5t58.5 -129.5q0 -124 -83.5 -168t-184.5 -44q-94 0 -155 50t-73 162l71 1v0z" />
    <glyph glyph-name="T" unicode="T" horiz-adv-x="551" 
d="M8 717h535v-56h-236v-661h-71v661h-228v56v0z" />
    <glyph glyph-name="U" unicode="U" horiz-adv-x="717" 
d="M94 724h71v-456q0 -113 58.5 -167.5t146.5 -54.5q89 0 139 57.5t50 163.5v457h71v-456q0 -119 -56 -201.5t-204 -82.5t-212 79.5t-64 203.5v457v0z" />
    <glyph glyph-name="V" unicode="V" horiz-adv-x="606" 
d="M0 724h79l236 -653l220 653h71l-252 -724h-78l-276 724v0z" />
    <glyph glyph-name="W" unicode="W" horiz-adv-x="1000" 
d="M0 724h71l173 -645l205 645h86l221 -645l157 645h71l-181 -724h-94l-221 654l-197 -654h-94l-197 724v0z" />
    <glyph glyph-name="X" unicode="X" horiz-adv-x="606" 
d="M16 724h94l197 -299l205 299h79l-245 -346l252 -378h-78l-221 323l-212 -323h-79l252 378l-244 346v0z" />
    <glyph glyph-name="Y" unicode="Y" horiz-adv-x="606" 
d="M8 724h86l213 -338l213 338h78l-259 -401v-323h-71v315l-260 409v0z" />
    <glyph glyph-name="Z" unicode="Z" horiz-adv-x="551" 
d="M31 724h481v-55l-394 -606h394v-63h-473v63l394 606h-402v55v0z" />
    <glyph glyph-name="bracketleft" unicode="[" 
d="M79 732h141v-55h-70v-716h70v-55h-141v826v0z" />
    <glyph glyph-name="backslash" unicode="\" 
d="M-55 724h71l315 -724h-71l-315 724v0z" />
    <glyph glyph-name="bracketright" unicode="]" 
d="M55 732h142v-826h-142v55h71v716h-71v55v0z" />
    <glyph glyph-name="asciicircum" unicode="^" horiz-adv-x="654" 
d="M299 693h55l237 -449h-71l-197 370l-181 -370h-71l228 449v0z" />
    <glyph glyph-name="underscore" unicode="_" horiz-adv-x="496" 
d="M0 -118v63h504v-63h-504v0z" />
    <glyph glyph-name="grave" unicode="`" horiz-adv-x="260" 
d="M8 709h94l95 -150h-55l-134 150v0z" />
    <glyph glyph-name="a" unicode="a" horiz-adv-x="496" 
d="M63 378q0 71 56 104t123 36q4 1 8.5 1h9.5q71 0 122 -36.5t51 -137.5q0 -176 0.5 -235.5t5.5 -95.5q0 -4 0.5 -7.5t1.5 -6.5h-63l-0.5 0.5t-0.5 1.5q-5 22 -6 41l-1 19q-14 -25 -38.5 -41.5t-51.5 -24.5q-18 -6 -35.5 -9t-31.5 -3q-89 0 -131.5 49t-42.5 108
q6 106 86 135.5t245 29.5q0 59 -16.5 108.5t-93.5 49.5q-59 0 -92.5 -23t-33.5 -64l-71 1v0zM370 252q-5 -1 -10.5 -1h-10.5q-90 0 -164.5 -16t-74.5 -94q0 -52 34 -77t77 -25q5 0 9.5 0.5t8.5 0.5q21 2 40.5 10t35.5 20q26 20 41 55t16 90q0 8 -0.5 17t-1.5 19v1z" />
    <glyph glyph-name="b" unicode="b" horiz-adv-x="551" 
d="M63 724h71v-283q15 23 35.5 38t43.5 24q22 9 42.5 12.5t35.5 3.5h3.5h3.5t3.5 0.5t3.5 0.5q79 0 140 -64t67 -189q0 -109 -52.5 -196t-142.5 -87h-2.5h-2.5h-2.5h-2.5q-59 0 -107.5 22.5t-65.5 63.5q0 -6 -1 -25.5t-6 -41.5q0 -1 -0.5 -2l-0.5 -1h-71q6 76 7 112.5
t1 59.5v552v0zM441 268q0 15 -2.5 37t-9.5 44q-13 43 -44.5 79t-93.5 36q-70 0 -117.5 -58t-47.5 -147q0 -94 46.5 -157.5t134.5 -63.5q71 0 102.5 64.5t31.5 164.5v1z" />
    <glyph glyph-name="c" unicode="c" horiz-adv-x="496" 
d="M394 346q0 52 -33.5 85t-92.5 33q-69 0 -105 -45.5t-47 -100.5q-3 -15 -4.5 -30t-1.5 -29q0 -12 0.5 -25t2.5 -26q6 -61 39 -113t116 -57q47 0 86.5 34t39.5 92l71 1q-6 -89 -57 -135t-140 -46q-88 0 -154.5 63.5t-66.5 211.5q0 101 40 156.5t89 79.5q25 13 49.5 18.5
t42.5 5.5h3.5h3.5q1 0 3 0.5t3 0.5q72 0 126 -49t58 -108v-4v-4v-5.5v-4.5l-71 1v0z" />
    <glyph glyph-name="d" unicode="d" horiz-adv-x="551" 
d="M480 724v-551q0 -30 1 -72.5t7 -100.5h-71q-1 3 -2 7.5t-2 9.5q-3 20 -3.5 36.5l-0.5 16.5q-17 -35 -59.5 -60.5t-89.5 -25.5h-6h-5q-103 -1 -150.5 71.5t-56.5 159.5q-2 13 -2.5 26t-0.5 26q0 104 38.5 158t85.5 76q22 10 43 14t38 4q71 0 109.5 -22t55.5 -57v284h71v0z
M110 268q0 -107 36.5 -164.5t113.5 -57.5q83 0 120 66.5t37 154.5q0 89 -50 143t-115 54q-70 -5 -101.5 -53t-38.5 -104q-1 -10 -1.5 -20t-0.5 -20v1z" />
    <glyph glyph-name="e" unicode="e" horiz-adv-x="551" 
d="M433 173h71q-24 -101 -81 -141t-140 -40q-122 0 -174 71t-60 157q-1 10 -1.5 19.5t-0.5 19.5q0 118 70 193t159 75q118 0 171.5 -77t57.5 -170v-7.5v-6.5v-6v-5q-1 -3 -1 -6v-6l-386 1q0 -16 2.5 -33t7.5 -35q13 -49 48 -89.5t96 -40.5h3h3h2.5h2.5q57 4 87.5 26t44.5 47
q8 15 12 28.5t6 24.5v1zM433 299v2.5t1 3.5v3.5v3.5q0 64 -37 101.5t-82 46.5q-8 2 -16 3t-16 1q-15 0 -34 -2.5t-39 -12.5q-27 -13 -52.5 -47.5t-39.5 -103.5l315 1v0z" />
    <glyph glyph-name="f" unicode="f" horiz-adv-x="331" 
d="M118 504v110q0 67 34 93.5t74 27.5h3.5h2.5q18 0 35.5 -3.5t31.5 -8.5v-54q-11 4 -22.5 6.5t-22.5 2.5q-29 0 -51 -20.5t-22 -67.5v-86h118v-55h-118v-449h-63v449h-102v55h102v0z" />
    <glyph glyph-name="g" unicode="g" horiz-adv-x="551" 
d="M433 504h63q0 -12 -1 -30.5t-3 -38.5v-3.5v-2.5q-1 -21 -2.5 -40t-1.5 -28v-322q0 -89 -39 -159.5t-181 -76.5q-90 0 -143.5 37.5t-54.5 93.5v2.5t1 2.5v3v3h63q6 -47 43.5 -67t90.5 -20q59 0 93 26t49 58q8 16 11.5 31t3.5 27v87q-29 -43 -67.5 -65t-97.5 -22
q-106 0 -160.5 75.5t-60.5 175.5v11.5t1 11.5q4 89 51 164t169 81q53 0 91.5 -20t73.5 -67l1 21t7 50v1zM425 268q0 82 -46 139t-111 57t-102 -45.5t-49 -100.5q-4 -15 -5.5 -30t-1.5 -29q0 -77 45.5 -141t104.5 -64q67 0 116 51t50 143v4.5v4.5q-1 2 -1 4.5v5.5v1z" />
    <glyph glyph-name="h" unicode="h" horiz-adv-x="551" 
d="M79 724h63v-299q11 40 50 67t115 27q77 0 125 -48t48 -149v-322h-63v299q0 10 -1 21t-2 23q-7 45 -36 83t-95 38q-71 0 -103.5 -50.5t-36.5 -111.5q-1 -5 -1 -10v-10v-282h-63v724v0z" />
    <glyph glyph-name="i" unicode="i" horiz-adv-x="220" 
d="M79 504h63v-504h-63v504v0zM71 724h79v-78h-79v78v0z" />
    <glyph glyph-name="j" unicode="j" horiz-adv-x="220" 
d="M71 496h63v-551v-7.5v-6.5q0 -61 -13 -95t-95 -34h-12.5t-13.5 1v63q53 0 62 13t9 66v551v0zM63 724h79v-78h-79v78v0z" />
    <glyph glyph-name="k" unicode="k" horiz-adv-x="496" 
d="M87 724h63v-425l236 205h79l-252 -221l275 -283h-79l-259 268v-268h-63v724v0z" />
    <glyph glyph-name="l" unicode="l" horiz-adv-x="220" 
d="M79 724h63v-724h-63v724v0z" />
    <glyph glyph-name="m" unicode="m" horiz-adv-x="882" 
d="M134 433q4 4 8 8.5t8 9.5q23 25 57.5 46.5t83.5 21.5q16 0 35.5 -2t39.5 -10q26 -10 50 -33t41 -66q18 37 46 60.5t58 36.5q18 7 36 10.5t33 3.5q95 0 138 -51.5t43 -122.5v-345h-63v331q0 9 -1.5 19t-4.5 21q-9 35 -39 64t-89 29q-11 0 -23.5 -2.5t-25.5 -8.5
q-35 -15 -64 -52.5t-29 -102.5v-298h-63v331q0 50 -35 91.5t-94 41.5h-6h-6q-59 -5 -93 -51.5t-40 -100.5q0 -6 -0.5 -11.5t-0.5 -10.5v-290h-63v386v9.5v9.5q0 14 -1.5 33.5t-6.5 64.5l63 1q6 -30 7 -51l1 -21v1z" />
    <glyph glyph-name="n" unicode="n" horiz-adv-x="551" 
d="M142 433q4 4 8 8.5t8 9.5q23 25 57 46.5t84 21.5q14 0 36 -5t46 -16q37 -18 68 -53t31 -92v-353h-63v331q0 50 -35 91.5t-94 41.5h-6h-6q-59 -5 -93 -51.5t-40 -100.5q0 -6 -0.5 -11.5t-0.5 -10.5v-290h-63v386v9.5v9.5q0 14 -1.5 33.5t-6.5 64.5l63 1q6 -30 7 -51l1 -21
v1z" />
    <glyph glyph-name="o" unicode="o" horiz-adv-x="551" 
d="M39 260q0 111 61.5 189t167.5 78t171 -75t65 -193t-64 -196.5t-164 -78.5t-168.5 78.5t-68.5 196.5v1zM102 260q6 -89 51.5 -155.5t122.5 -66.5q76 0 120 68t45 150v1.5v1.5q0 80 -45 146t-117 66h-2.5h-2.5h-3h-3q-77 -5 -121.5 -67t-44.5 -145v1z" />
    <glyph glyph-name="p" unicode="p" horiz-adv-x="551" 
d="M118 520q2 -7 3.5 -14.5t2.5 -15.5q1 -16 1.5 -29l0.5 -13q5 5 9.5 10t8.5 10q30 29 64.5 40t90.5 11q107 0 156 -68t49 -169q0 -124 -46 -211t-159 -87q-59 0 -101.5 26.5t-71.5 67.5v-267h-63v575v35.5t-1 30.5t-2.5 30.5t-4.5 36.5l63 1v0zM126 252q0 -15 1.5 -29
t4.5 -29q13 -55 51 -101.5t108 -46.5q79 0 111 58t38 128q0 9 0.5 17.5t0.5 17.5t-0.5 18t-1.5 18q-7 63 -41 115.5t-107 52.5q-88 0 -123 -57t-41 -126q0 -9 -0.5 -18.5t-0.5 -18.5v1z" />
    <glyph glyph-name="q" unicode="q" horiz-adv-x="551" 
d="M433 520h63q-1 -5 -1.5 -9t-0.5 -8q-5 -32 -5.5 -64.5t-0.5 -69.5v-558h-63v276q-18 -34 -46 -56t-58 -33q-18 -7 -36 -10.5t-33 -3.5q-101 0 -153 78t-53 188v6t1 7v6v6q0 95 49.5 169.5t155.5 74.5q47 0 89.5 -12t83.5 -59l0.5 17.5t4.5 38.5q1 4 1.5 7.5t1.5 7.5v1z
M425 260v9.5t-1 10.5q-4 72 -41.5 131.5t-114.5 59.5q-83 0 -120.5 -57.5t-37.5 -146.5q0 -9 0.5 -17.5t0.5 -17.5q6 -70 38 -128t111 -58q83 0 121.5 61t42.5 133q1 5 1 9.5v9.5v1z" />
    <glyph glyph-name="r" unicode="r" horiz-adv-x="331" 
d="M71 504h63q3 -10 4.5 -17.5t2.5 -14.5q1 -8 1 -15.5v-16.5q21 60 61.5 70t93.5 9h8.5h9.5v-54q-7 0 -13.5 0.5t-13.5 0.5q-61 0 -103.5 -40t-42.5 -104v-322h-63v417v21.5t-1 21.5q-1 10 -2.5 20.5t-4.5 22.5v1z" />
    <glyph glyph-name="s" unicode="s" horiz-adv-x="496" 
d="M110 150q6 -54 46.5 -79t87.5 -25q59 0 100.5 25t41.5 78q0 49 -43.5 67.5t-98.5 31.5l-10 2l-10 2q-60 14 -110.5 39.5t-50.5 93.5q0 53 43.5 93.5t137.5 40.5q77 0 134 -24.5t63 -101.5l-71 1q-6 34 -39.5 55.5t-86.5 21.5t-76 -16.5t-30 -35.5q-2 -7 -3 -13.5
t-1 -12.5q0 -37 37 -53.5t86 -28.5q10 -3 19.5 -5t19.5 -5q60 -16 110.5 -45t50.5 -100q0 -82 -65 -127t-148 -45q-14 0 -29 1.5t-30 4.5q-49 10 -91 46t-47 113l63 1v0z" />
    <glyph glyph-name="t" unicode="t" horiz-adv-x="331" 
d="M16 449v55h102v102l63 24v-126h118v-55h-118v-331q0 -47 18.5 -63.5t48.5 -16.5q14 0 28.5 2t30.5 6v-54q-19 -5 -37 -7.5t-34 -2.5q-59 0 -88.5 30t-29.5 81v356h-102v0z" />
    <glyph glyph-name="u" unicode="u" horiz-adv-x="551" 
d="M142 496v-291q0 -84 30.5 -122.5t95.5 -44.5h2.5h2.5t2.5 -0.5t2.5 -0.5q61 0 100 55.5t39 134.5v269h63v-370q0 -25 1 -58.5t7 -67.5h-63q-1 3 -2 7.5t-2 9.5q-3 20 -3.5 36.5l-0.5 16.5q-23 -41 -54.5 -63.5t-102.5 -22.5q-100 0 -140.5 54t-40.5 142v316h63v0z" />
    <glyph glyph-name="v" unicode="v" horiz-adv-x="496" 
d="M16 504h71l173 -410l157 410h71l-197 -504h-71l-204 504v0z" />
    <glyph glyph-name="w" unicode="w" horiz-adv-x="827" 
d="M8 504h71l149 -417l150 417h79l141 -417l142 417h71l-181 -504h-63l-150 433l-157 -433h-63l-189 504v0z" />
    <glyph glyph-name="x" unicode="x" horiz-adv-x="496" 
d="M31 504h87l134 -205l150 205h78l-189 -252l189 -252h-78l-150 205l-158 -205h-70l189 244l-182 260v0z" />
    <glyph glyph-name="y" unicode="y" horiz-adv-x="496" 
d="M0 504h79l173 -410l165 410h71l-283 -693h-71l79 197l-213 496v0z" />
    <glyph glyph-name="z" unicode="z" horiz-adv-x="441" 
d="M47 504h370v-63l-291 -378h291v-63h-370v63l292 378h-292v63v0z" />
    <glyph glyph-name="braceleft" unicode="{" 
d="M39 346q53 5 62 33t9 69v135q0 94 35.5 117t106.5 23v-54q-29 -1 -50 -12t-21 -52v-148q0 -60 -11 -92.5t-52 -50.5q41 -18 52 -52.5t11 -81.5v-117q0 -50 7 -76.5t47 -26.5h8.5t8.5 1v-55q-9 -2 -17 -2h-16q-72 0 -90.5 43.5t-18.5 106.5v135v9.5v11.5q-2 25 -14.5 46.5
t-56.5 25.5v64v0z" />
    <glyph glyph-name="bar" unicode="|" horiz-adv-x="220" 
d="M79 724h63v-724h-63v724v0z" />
    <glyph glyph-name="braceright" unicode="}" 
d="M165 315q-34 18 -49.5 50.5t-19.5 67.5q-1 8 -1.5 15.5t-0.5 15.5v134q0 29 -11.5 45.5t-58.5 16.5v64q83 -1 112 -23.5t29 -87.5v-141q0 -65 19 -96t60 -31v-62q-41 -1 -60 -31.5t-19 -71.5v-172q0 -49 -32 -76t-87 -27h-10.5t-11.5 1v63q5 -1 9 -1h8q40 0 46.5 21.5
t6.5 48.5v127q0 46 15 88.5t56 60.5v1z" />
    <glyph glyph-name="asciitilde" unicode="~" horiz-adv-x="654" 
d="M79 213q19 37 50 62t65 34q9 3 17.5 4t16.5 1q33 0 63.5 -11t58.5 -24q27 -14 50 -25t41 -11q21 0 38.5 17t32.5 38q7 8 12.5 16.5t10.5 15.5l48 -31q-1 -3 -2.5 -5t-2.5 -4q-29 -50 -60.5 -76t-76.5 -26q-36 0 -68 11t-59 25q-27 13 -49 24t-37 11q-32 0 -55 -21
t-42 -47q-5 -6 -9 -11.5t-8 -10.5q-1 -1 -2 -2.5t-2 -2.5l-31 49v0z" />
    <glyph glyph-name="Adieresis" unicode="&#xc4;" horiz-adv-x="661" 
d="M299 732h79l291 -732h-78l-79 197h-355l-70 -197h-79l291 732v0zM488 260l-149 401l-158 -401h307v0zM213 898h86v-95h-86v95v0zM386 898h86v-95h-86v95v0z" />
    <glyph glyph-name="Aring" unicode="&#xc5;" horiz-adv-x="661" 
d="M299 732h79l291 -732h-78l-79 197h-355l-70 -197h-79l291 732v0zM488 260l-149 401l-158 -401h307v0zM260 874q0 34 22.5 60t63.5 26q42 0 68.5 -23t26.5 -64q0 -47 -26.5 -70.5t-68.5 -23.5q-41 0 -63.5 26.5t-22.5 67.5v1zM402 874q0 23 -16 34.5t-40 11.5
q-23 0 -35 -14.5t-12 -32.5v-6.5t1 -7.5q2 -15 12 -28t34 -13q30 0 43 16t13 39v1z" />
    <glyph glyph-name="Ccedilla" unicode="&#xc7;" horiz-adv-x="661" 
d="M543 559q-6 52 -51 88.5t-122 36.5q-124 -6 -180 -98.5t-56 -216.5q0 -16 1 -32.5t4 -33.5q12 -93 66.5 -171t164.5 -78q83 0 123.5 30.5t57.5 95.5l79 1q-16 -77 -83.5 -133.5t-166.5 -57.5h-8.5t-8.5 1q-4 0 -8.5 0.5t-8.5 0.5l-15 -39q4 1 7.5 1h7.5q39 0 66 -19.5
t27 -45.5q0 -3 -0.5 -6t-0.5 -6q-1 -2 -2 -5t-3 -6q-11 -23 -40 -33t-63 -10h-4.5h-4.5q-31 1 -59 8.5t-42 18.5l8 24q10 -5 21 -8.5t23 -6.5q13 -3 25.5 -4.5t23.5 -1.5q20 0 33 5t16 16q2 5 3.5 9.5t1.5 9.5q0 17 -15.5 22t-34.5 6h-3h-4h-14.5h-12.5l24 71
q-124 11 -192 123t-68 254t72 257t243 121q10 0 21 -0.5t21 -1.5q74 -7 137 -48t73 -139l-79 1v0z" />
    <glyph glyph-name="Eacute" unicode="&#xc9;" horiz-adv-x="606" 
d="M102 724h433v-63h-362v-259h347v-63h-347v-276h378v-63h-449v724v0zM346 929h95l-134 -149h-55l94 149v0z" />
    <glyph glyph-name="Ntilde" unicode="&#xd1;" horiz-adv-x="717" 
d="M87 724h78l402 -630v630h71v-724h-87l-394 622v-622h-70v724v0zM220 819q8 31 25 50t36 28q9 4 17.5 6t16.5 2q18 0 29 -3.5t21 -8.5q1 -1 2 -1.5t2 -0.5q9 -4 18 -7t22 -3q17 0 28.5 9t18.5 19q0 1 0.5 1.5t0.5 1.5l47 1q-9 -37 -26.5 -56.5t-37.5 -26.5q-6 -2 -11.5 -3
t-11.5 -1q-18 0 -30.5 3.5t-24.5 8.5q-12 4 -24.5 7.5t-30.5 3.5t-29.5 -9.5t-17.5 -21.5l-40 1v0z" />
    <glyph glyph-name="Odieresis" unicode="&#xd6;" horiz-adv-x="772" 
d="M63 362q0 159 78.5 268t244.5 109q148 0 230 -102.5t97 -226.5q2 -14 3 -28.5t1 -28.5v-11.5v-10.5q-6 -131 -83.5 -239t-247.5 -108q-177 0 -247 109t-76 268v1zM134 362q0 -131 61 -223.5t191 -92.5t191 85.5t61 221.5q0 131 -64 227t-188 96q-105 0 -169.5 -77.5
t-78.5 -170.5q-2 -12 -3 -24.5t-1 -24.5v-8.5v-9.5v1zM268 937h86v-94h-86v94v0zM441 937h87v-94h-87v94v0z" />
    <glyph glyph-name="Udieresis" unicode="&#xdc;" horiz-adv-x="717" 
d="M94 724h71v-456q0 -113 58.5 -167.5t146.5 -54.5q89 0 139 57.5t50 163.5v457h71v-456q0 -119 -56 -201.5t-204 -82.5t-212 79.5t-64 203.5v457v0zM228 929h87v-94h-87v94v0zM402 929h86v-94h-86v94v0z" />
    <glyph glyph-name="aacute" unicode="&#xe1;" horiz-adv-x="496" 
d="M63 378q0 71 56 104t123 36q4 1 8.5 1h9.5q71 0 122 -36.5t51 -137.5q0 -176 0.5 -235.5t5.5 -95.5q0 -4 0.5 -7.5t1.5 -6.5h-63l-0.5 0.5t-0.5 1.5q-5 22 -6 41l-1 19q-14 -25 -38.5 -41.5t-51.5 -24.5q-18 -6 -35.5 -9t-31.5 -3q-89 0 -131.5 49t-42.5 108
q6 106 86 135.5t245 29.5q0 59 -16.5 108.5t-93.5 49.5q-59 0 -92.5 -23t-33.5 -64l-71 1v0zM370 252q-5 -1 -10.5 -1h-10.5q-90 0 -164.5 -16t-74.5 -94q0 -52 34 -77t77 -25q5 0 9.5 0.5t8.5 0.5q21 2 40.5 10t35.5 20q26 20 41 55t16 90q0 8 -0.5 17t-1.5 19v1zM276 709
h94l-134 -150h-55l95 150v0z" />
    <glyph glyph-name="agrave" unicode="&#xe0;" horiz-adv-x="496" 
d="M55 378q0 71 56 104t123 36q4 1 8.5 1h9.5q71 0 122 -36.5t51 -137.5q0 -176 0.5 -235.5t5.5 -95.5q0 -4 0.5 -7.5t1.5 -6.5h-63l-0.5 0.5t-0.5 1.5q-5 22 -6 41l-1 19q-14 -25 -38.5 -41.5t-51.5 -24.5q-18 -6 -35.5 -9t-31.5 -3q-88 0 -131 49t-43 108q6 106 86 135.5
t245 29.5q0 59 -16.5 108.5t-93.5 49.5q-59 0 -92.5 -23t-33.5 -64l-71 1v0zM362 252q-5 -1 -10.5 -1h-10.5q-90 0 -164.5 -16t-74.5 -94q0 -52 34 -77t77 -25q5 0 9.5 0.5t8.5 0.5q21 2 40.5 10t35.5 20q26 20 41 55t16 90q0 8 -0.5 17t-1.5 19v1zM118 709h95l94 -150h-55
l-134 150v0z" />
    <glyph glyph-name="acircumflex" unicode="&#xe2;" horiz-adv-x="496" 
d="M63 378q0 71 56 104t123 36q4 1 8.5 1h9.5q71 0 122 -36.5t51 -137.5q0 -176 0.5 -235.5t5.5 -95.5q0 -4 0.5 -7.5t1.5 -6.5h-63l-0.5 0.5t-0.5 1.5q-5 22 -6 41l-1 19q-14 -25 -38.5 -41.5t-51.5 -24.5q-18 -6 -35.5 -9t-31.5 -3q-89 0 -131.5 49t-42.5 108
q6 106 86 135.5t245 29.5q0 59 -16.5 108.5t-93.5 49.5q-59 0 -92.5 -23t-33.5 -64l-71 1v0zM370 252q-5 -1 -10.5 -1h-10.5q-90 0 -164.5 -16t-74.5 -94q0 -52 34 -77t77 -25q5 0 9.5 0.5t8.5 0.5q21 2 40.5 10t35.5 20q26 20 41 55t16 90q0 8 -0.5 17t-1.5 19v1zM213 709
h78l103 -150h-55l-87 102l-87 -102h-55l103 150v0z" />
    <glyph glyph-name="adieresis" unicode="&#xe4;" horiz-adv-x="496" 
d="M63 378q0 71 56 104t123 36q4 1 8.5 1h9.5q71 0 122 -36.5t51 -137.5q0 -176 0.5 -235.5t5.5 -95.5q0 -4 0.5 -7.5t1.5 -6.5h-63l-0.5 0.5t-0.5 1.5q-5 22 -6 41l-1 19q-14 -25 -38.5 -41.5t-51.5 -24.5q-18 -6 -35.5 -9t-31.5 -3q-89 0 -131.5 49t-42.5 108
q6 106 86 135.5t245 29.5q0 59 -16.5 108.5t-93.5 49.5q-59 0 -92.5 -23t-33.5 -64l-71 1v0zM370 252q-5 -1 -10.5 -1h-10.5q-90 0 -164.5 -16t-74.5 -94q0 -52 34 -77t77 -25q5 0 9.5 0.5t8.5 0.5q21 2 40.5 10t35.5 20q26 20 41 55t16 90q0 8 -0.5 17t-1.5 19v1zM126 709
h87v-95h-87v95v0zM299 709h87v-95h-87v95v0z" />
    <glyph glyph-name="atilde" unicode="&#xe3;" horiz-adv-x="496" 
d="M63 378q0 71 56 104t123 36q4 1 8.5 1h9.5q71 0 122 -36.5t51 -137.5q0 -176 0.5 -235.5t5.5 -95.5q0 -4 0.5 -7.5t1.5 -6.5h-63l-0.5 0.5t-0.5 1.5q-5 22 -6 41l-1 19q-14 -25 -38.5 -41.5t-51.5 -24.5q-18 -6 -35.5 -9t-31.5 -3q-89 0 -131.5 49t-42.5 108
q6 106 86 135.5t245 29.5q0 59 -16.5 108.5t-93.5 49.5q-59 0 -92.5 -23t-33.5 -64l-71 1v0zM370 252q-5 -1 -10.5 -1h-10.5q-90 0 -164.5 -16t-74.5 -94q0 -52 34 -77t77 -25q5 0 9.5 0.5t8.5 0.5q21 2 40.5 10t35.5 20q26 20 41 55t16 90q0 8 -0.5 17t-1.5 19v1zM110 614
q8 31 25 50t36 28q9 4 17.5 6t16.5 2q18 0 29 -3.5t21 -8.5q1 -1 2 -1.5t2 -0.5q9 -4 18 -7t22 -3q18 0 30 10t17 22l48 1q-9 -37 -26.5 -57t-37.5 -27q-6 -2 -11.5 -3t-11.5 -1q-18 0 -30.5 4t-24.5 8q-12 5 -24.5 8.5t-30.5 3.5t-30 -10t-17 -22l-40 1v0z" />
    <glyph glyph-name="aring" unicode="&#xe5;" horiz-adv-x="496" 
d="M63 378q0 71 56 104t123 36q4 1 8.5 1h9.5q71 0 122 -36.5t51 -137.5q0 -176 0.5 -235.5t5.5 -95.5q0 -4 0.5 -7.5t1.5 -6.5h-63l-0.5 0.5t-0.5 1.5q-5 22 -6 41l-1 19q-14 -25 -38.5 -41.5t-51.5 -24.5q-18 -6 -35.5 -9t-31.5 -3q-89 0 -131.5 49t-42.5 108
q6 106 86 135.5t245 29.5q0 59 -16.5 108.5t-93.5 49.5q-59 0 -92.5 -23t-33.5 -64l-71 1v0zM370 252q-5 -1 -10.5 -1h-10.5q-90 0 -164.5 -16t-74.5 -94q0 -52 34 -77t77 -25q5 0 9.5 0.5t8.5 0.5q21 2 40.5 10t35.5 20q26 20 41 55t16 90q0 8 -0.5 17t-1.5 19v1zM165 646
q0 34 23 59.5t64 25.5t67.5 -22.5t26.5 -63.5q0 -47 -26.5 -71t-67.5 -24t-64 27t-23 68v1zM307 646q0 22 -16 34t-39 12t-34.5 -14t-12.5 -30v-1.5v-1.5v-6.5t1 -7.5q2 -15 12 -28t34 -13q29 0 42 15.5t13 39.5v1z" />
    <glyph glyph-name="ccedilla" unicode="&#xe7;" horiz-adv-x="496" 
d="M394 346q0 52 -33.5 85t-92.5 33q-69 0 -105 -45.5t-47 -100.5q-3 -15 -4.5 -30t-1.5 -29q0 -12 0.5 -25t2.5 -26q6 -61 39 -113t116 -57q47 0 86.5 34t39.5 92l71 1q-4 -78 -39 -117t-76 -53q-20 -7 -38.5 -10t-34.5 -3q-7 0 -13.5 0.5t-11.5 1.5l-8 -39q6 2 12.5 3
t13.5 1q29 0 52.5 -17.5t23.5 -41.5q0 -41 -30.5 -56t-71.5 -15h-6h-6q-26 1 -51.5 7t-46.5 17l8 31q4 -2 8.5 -4t9.5 -4q11 -4 23.5 -8t26.5 -6q7 -2 13.5 -2.5t13.5 -0.5q17 0 29.5 5.5t16.5 19.5q1 2 1 4.5v4.5v2.5v2.5q-2 11 -14 20t-37 9q-7 0 -16 -1t-20 -3l23 71
q-9 2 -18 4.5t-18 5.5q-52 19 -94.5 77t-42.5 188q0 101 40 156.5t89 79.5q25 13 49.5 18.5t42.5 5.5h3.5h3.5q1 0 3 0.5t3 0.5q72 0 126 -49t58 -108v-4v-4v-5.5v-4.5l-71 1v0z" />
    <glyph glyph-name="eacute" unicode="&#xe9;" horiz-adv-x="551" 
d="M433 173h71q-24 -101 -81 -141t-140 -40q-122 0 -174 71t-60 157q-1 10 -1.5 19.5t-0.5 19.5q0 118 70 193t159 75q118 0 171.5 -77t57.5 -170v-7.5v-6.5v-6v-5q-1 -3 -1 -6v-6l-386 1q0 -16 2.5 -33t7.5 -35q13 -49 48 -89.5t96 -40.5h3h3h2.5h2.5q57 4 87.5 26t44.5 47
q8 15 12 28.5t6 24.5v1zM433 299v2.5t1 3.5v3.5v3.5q0 64 -37 101.5t-82 46.5q-8 2 -16 3t-16 1q-15 0 -34 -2.5t-39 -12.5q-27 -13 -52.5 -47.5t-39.5 -103.5l315 1v0zM323 717h94l-134 -150h-55l95 150v0z" />
    <glyph glyph-name="egrave" unicode="&#xe8;" horiz-adv-x="551" 
d="M425 173h71q-23 -101 -80 -141t-140 -40q-123 0 -175 71t-60 157q-1 10 -1.5 19.5t-0.5 19.5q0 118 70.5 193t158.5 75q118 0 171.5 -77t57.5 -170v-7.5v-6.5v-6v-5q-1 -3 -1 -6v-6l-386 1q0 -16 2.5 -33t7.5 -35q13 -49 48.5 -89.5t96.5 -40.5h3h3h2.5h2.5q57 4 87 26
t44 47q8 15 12 28.5t6 24.5v1zM425 299v2.5t1 3.5v3.5v3.5q0 64 -36.5 101t-80.5 47q-8 2 -16.5 3t-16.5 1q-15 0 -34 -2.5t-38 -11.5q-28 -14 -54 -48t-40 -104l315 1v0zM150 717h94l95 -150h-56l-133 150v0z" />
    <glyph glyph-name="ecircumflex" unicode="&#xea;" horiz-adv-x="551" 
d="M433 173h71q-24 -101 -81 -141t-140 -40q-122 0 -174 71t-60 157q-1 10 -1.5 19.5t-0.5 19.5q0 118 70 193t159 75q118 0 171.5 -77t57.5 -170v-7.5v-6.5v-6v-5q-1 -3 -1 -6v-6l-386 1q0 -16 2.5 -33t7.5 -35q13 -49 48 -89.5t96 -40.5h3h3h2.5h2.5q57 4 87.5 26t44.5 47
q8 15 12 28.5t6 24.5v1zM433 299v2.5t1 3.5v3.5v3.5q0 64 -37 101.5t-82 46.5q-8 2 -16 3t-16 1q-15 0 -34 -2.5t-39 -12.5q-27 -13 -52.5 -47.5t-39.5 -103.5l315 1v0zM236 717h79l102 -150h-55l-86 102l-87 -102h-55l102 150v0z" />
    <glyph glyph-name="edieresis" unicode="&#xeb;" horiz-adv-x="551" 
d="M433 173h71q-24 -101 -81 -141t-140 -40q-122 0 -174 71t-60 157q-1 10 -1.5 19.5t-0.5 19.5q0 118 70 193t159 75q118 0 171.5 -77t57.5 -170v-7.5v-6.5v-6v-5q-1 -3 -1 -6v-6l-386 1q0 -16 2.5 -33t7.5 -35q13 -49 48 -89.5t96 -40.5h3h3h2.5h2.5q57 4 87.5 26t44.5 47
q8 15 12 28.5t6 24.5v1zM433 299v2.5t1 3.5v3.5v3.5q0 64 -37 101.5t-82 46.5q-8 2 -16 3t-16 1q-15 0 -34 -2.5t-39 -12.5q-27 -13 -52.5 -47.5t-39.5 -103.5l315 1v0zM150 717h86v-95h-86v95v0zM323 717h86v-95h-86v95v0z" />
    <glyph glyph-name="iacute" unicode="&#xed;" horiz-adv-x="220" 
d="M79 504h63v-504h-63v504v0zM150 709h94l-134 -150h-55l95 150v0z" />
    <glyph glyph-name="igrave" unicode="&#xec;" horiz-adv-x="220" 
d="M79 504h63v-504h-63v504v0zM-8 709h95l94 -150h-55l-134 150v0z" />
    <glyph glyph-name="icircumflex" unicode="&#xee;" horiz-adv-x="220" 
d="M79 504h63v-504h-63v504v0zM79 709h78l103 -150h-55l-87 102l-87 -102h-55l103 150v0z" />
    <glyph glyph-name="idieresis" unicode="&#xef;" horiz-adv-x="220" 
d="M79 504h63v-504h-63v504v0zM-24 709h87v-95h-87v95v0zM150 709h86v-95h-86v95v0z" />
    <glyph glyph-name="ntilde" unicode="&#xf1;" horiz-adv-x="551" 
d="M142 433q4 4 8 8.5t8 9.5q23 25 57 46.5t84 21.5q14 0 36 -5t46 -16q37 -18 68 -53t31 -92v-353h-63v331q0 50 -35 91.5t-94 41.5h-6h-6q-59 -5 -93 -51.5t-40 -100.5q0 -6 -0.5 -11.5t-0.5 -10.5v-290h-63v386v9.5v9.5q0 14 -1.5 33.5t-6.5 64.5l63 1q6 -30 7 -51l1 -21
v1zM142 598q7 30 23.5 49t34.5 28q10 5 19 7t17 2q18 0 29 -3.5t21 -8.5q1 0 2 -0.5t2 -1.5q9 -4 18 -7t23 -3q17 0 29 10t18 22l47 1q-9 -36 -26 -55.5t-35 -27.5q-6 -3 -12.5 -4t-12.5 -1q-18 0 -31 4t-24 8q-12 5 -25 8.5t-31 3.5q-17 0 -29 -10t-18 -22l-39 1v0z" />
    <glyph glyph-name="oacute" unicode="&#xf3;" horiz-adv-x="551" 
d="M47 260q0 111 61.5 189t167.5 78t171 -75t65 -193t-64 -196.5t-165 -78.5q-100 0 -168 78.5t-68 196.5v1zM110 260q6 -89 51.5 -155.5t121.5 -66.5q77 0 121 68t45 150v1.5v1.5q0 80 -45 146t-117 66h-2.5h-2.5h-3h-3q-77 -5 -121.5 -67t-44.5 -145v1zM283 717h95
l-134 -150h-55l94 150v0z" />
    <glyph glyph-name="ograve" unicode="&#xf2;" horiz-adv-x="551" 
d="M47 252q0 112 61.5 189.5t167.5 77.5t171 -75t65 -193t-64 -196.5t-165 -78.5q-100 0 -168 78.5t-68 196.5v1zM110 252q6 -89 51.5 -155.5t121.5 -66.5q77 0 121 68t45 150v1.5v1.5q0 80 -45.5 146.5t-118.5 66.5h-4.5h-4.5q-77 -6 -121.5 -68t-44.5 -145v1zM150 717h94
l95 -150h-56l-133 150v0z" />
    <glyph glyph-name="ocircumflex" unicode="&#xf4;" horiz-adv-x="551" 
d="M55 244q0 112 61 189.5t167 77.5q107 0 172 -74.5t65 -193.5q0 -118 -64 -196t-165 -78q-100 0 -168 78t-68 196v1zM118 244q6 -89 51.5 -155t121.5 -66q77 0 121.5 69t44.5 151v1.5v1.5q-1 79 -46 144.5t-117 65.5h-2.5h-2.5h-3h-3q-76 -6 -120.5 -68t-44.5 -145v1z
M244 709h79l102 -150h-55l-87 102l-86 -102h-55l102 150v0z" />
    <glyph glyph-name="odieresis" unicode="&#xf6;" horiz-adv-x="551" 
d="M39 260q0 111 61.5 189t167.5 78t171 -75t65 -193t-64 -196.5t-164 -78.5t-168.5 78.5t-68.5 196.5v1zM102 260q6 -89 51.5 -155.5t122.5 -66.5q76 0 120 68t45 150v1.5v1.5q0 80 -45 146t-117 66h-2.5h-2.5h-3h-3q-77 -5 -121.5 -67t-44.5 -145v1zM157 717h87v-95h-87
v95v0zM331 717h86v-95h-86v95v0z" />
    <glyph glyph-name="otilde" unicode="&#xf5;" horiz-adv-x="551" 
d="M39 252q0 112 61.5 189.5t167.5 77.5t171 -75t65 -193t-64 -196.5t-164 -78.5t-168.5 78.5t-68.5 196.5v1zM102 252q6 -89 51.5 -155.5t122.5 -66.5q76 0 120 68t45 150v1.5v1.5q0 80 -45.5 146.5t-118.5 66.5h-4.5h-4.5q-77 -6 -121.5 -68t-44.5 -145v1zM134 614
q8 30 24.5 49t34.5 28q9 5 18 7t17 2q18 0 29.5 -3.5t21.5 -8.5q1 0 2 -0.5t2 -1.5q8 -4 17.5 -7t22.5 -3q17 0 29 10t18 22l47 1q-8 -36 -25 -55.5t-35 -27.5q-7 -2 -13.5 -3.5t-12.5 -1.5q-18 0 -31 4t-24 8q-12 5 -25 8.5t-31 3.5q-17 0 -29 -10t-18 -22l-39 1v0z" />
    <glyph glyph-name="uacute" unicode="&#xfa;" horiz-adv-x="551" 
d="M142 496v-291q0 -84 30.5 -122.5t95.5 -44.5h2.5h2.5t2.5 -0.5t2.5 -0.5q61 0 100 55.5t39 134.5v269h63v-370q0 -25 1 -58.5t7 -67.5h-63q-1 3 -2 7.5t-2 9.5q-3 20 -3.5 36.5l-0.5 16.5q-23 -41 -54.5 -63.5t-102.5 -22.5q-100 0 -140.5 54t-40.5 142v316h63v0z
M307 709h95l-134 -150h-55l94 150v0z" />
    <glyph glyph-name="ugrave" unicode="&#xf9;" horiz-adv-x="551" 
d="M142 496v-291q0 -84 30.5 -122.5t95.5 -44.5h2.5h2.5t2.5 -0.5t2.5 -0.5q61 0 100 55.5t39 134.5v269h63v-370q0 -25 1 -58.5t7 -67.5h-63q-1 3 -2 7.5t-2 9.5q-3 20 -3.5 36.5l-0.5 16.5q-23 -41 -54.5 -63.5t-102.5 -22.5q-100 0 -140.5 54t-40.5 142v316h63v0z
M150 709h94l95 -150h-56l-133 150v0z" />
    <glyph glyph-name="ucircumflex" unicode="&#xfb;" horiz-adv-x="551" 
d="M142 496v-291q0 -84 30.5 -122.5t95.5 -44.5h2.5h2.5t2.5 -0.5t2.5 -0.5q61 0 100 55.5t39 134.5v269h63v-370q0 -25 1 -58.5t7 -67.5h-63q-1 3 -2 7.5t-2 9.5q-3 20 -3.5 36.5l-0.5 16.5q-23 -41 -54.5 -63.5t-102.5 -22.5q-100 0 -140.5 54t-40.5 142v316h63v0z
M236 701h79l102 -150h-55l-86 103l-87 -103h-55l102 150v0z" />
    <glyph glyph-name="udieresis" unicode="&#xfc;" horiz-adv-x="551" 
d="M142 496v-291q0 -84 30.5 -122.5t95.5 -44.5h2.5h2.5t2.5 -0.5t2.5 -0.5q61 0 100 55.5t39 134.5v269h63v-370q0 -25 1 -58.5t7 -67.5h-63q-1 3 -2 7.5t-2 9.5q-3 20 -3.5 36.5l-0.5 16.5q-23 -41 -54.5 -63.5t-102.5 -22.5q-100 0 -140.5 54t-40.5 142v316h63v0z
M142 701h86v-95h-86v95v0zM315 701h87v-95h-87v95v0z" />
    <glyph glyph-name="dagger" unicode="&#x2020;" horiz-adv-x="551" 
d="M79 543h173v189h63v-189h173v-63h-173v-480h-63v480h-173v63v0z" />
    <glyph glyph-name="degree" horiz-adv-x="500" 
 />
    <glyph glyph-name="cent" unicode="&#xa2;" horiz-adv-x="551" 
d="M425 346q0 29 -12.5 50t-28.5 32q-6 4 -11.5 7t-10.5 5l-110 -385q10 -2 19.5 -3t19.5 -1q56 -1 92.5 28.5t41.5 84.5l71 1q-5 -86 -66.5 -133t-136.5 -47q-14 0 -28.5 1.5t-28.5 5.5l-31 -118h-55l39 142q-47 22 -78.5 85.5t-31.5 157.5q0 127 60 188.5t132 71.5
q8 1 15.5 1.5t14.5 0.5q8 0 15.5 -0.5t14.5 -1.5l31 127h55l-39 -142q41 -9 68 -39t39 -64q6 -15 8.5 -29t2.5 -27l-71 1v0zM315 457q-7 1 -13.5 1.5t-13.5 0.5q-62 0 -99 -52.5t-45 -114.5q-1 -9 -1.5 -17t-0.5 -16q0 -71 16.5 -111.5t46.5 -69.5l110 379v0z" />
    <glyph glyph-name="sterling" unicode="&#xa3;" horiz-adv-x="551" 
d="M47 433h71v39q0 108 42 158t93 66q20 7 40.5 9.5t37.5 2.5h9.5t8.5 1q86 0 129 -37t53 -82q2 -8 3 -16t1 -16l-70 1q0 34 -34.5 60t-99.5 26q-11 0 -23.5 -2.5t-25.5 -7.5q-35 -13 -64 -50t-29 -106v-46h165v-63h-165v-307h323v-63h-457v63h63v307h-71v63v0z" />
    <glyph glyph-name="section" unicode="&#xa7;" horiz-adv-x="551" 
d="M118 71q2 -2 4 -3l4 -2q33 -16 64.5 -22t53.5 -6q51 0 83.5 21t44.5 47q3 7 4.5 14t1.5 13q0 33 -32 50.5t-74 32.5q-7 2 -14 4.5t-14 4.5q-49 17 -90 42.5t-44 77.5q0 8 1.5 16.5t4.5 16.5q10 29 35 56t62 45q-6 4 -13 8t-14 9q-26 17 -47 42t-21 67q0 47 30.5 81
t71.5 45q16 5 36 7t41 2h2.5h2.5q33 0 63 -5t44 -12v-62q-14 4 -26 7.5t-24 6.5q-10 2 -20.5 3t-22.5 1q-9 0 -19 -0.5t-21 -2.5q-42 -6 -64.5 -26.5t-22.5 -44.5q3 -34 34.5 -53t72.5 -36q5 -2 9.5 -4t9.5 -4q47 -19 86.5 -45.5t39.5 -77.5q0 -34 -18 -55t-40 -36
q-12 -8 -24 -14.5t-20 -12.5q9 -6 20 -12t23 -14q25 -17 46 -44t21 -72q0 -55 -37.5 -89t-83.5 -48q-18 -6 -35.5 -9t-32.5 -3q-41 0 -77 6t-65 18v71v0zM283 283q6 7 15 13.5t19 12.5q1 1 2.5 1.5t2.5 1.5q18 11 33 25.5t15 39.5q0 16 -12 26.5t-31 19.5q-14 7 -31.5 15
t-35.5 18q-41 -18 -60 -40.5t-19 -46.5q0 -29 27.5 -49t74.5 -38v1z" />
    <glyph glyph-name="bullet" horiz-adv-x="252" 
d="M94 307h87v-94h-87v94v0z" />
    <glyph glyph-name="paragraph" unicode="&#xb6;" horiz-adv-x="646" 
d="M449 669h-118v-819h-71v489q-82 -1 -139.5 60t-57.5 143q0 8 1 16.5t2 17.5q11 58 58.5 106.5t135.5 48.5l260 1v-882h-71v819v0z" />
    <glyph glyph-name="germandbls" unicode="&#xdf;" horiz-adv-x="606" 
d="M142 0h-63v496q0 12 0.5 24.5t2.5 25.5q9 73 52.5 133t148.5 60q77 0 137 -36t60 -113q0 -33 -19.5 -60t-43.5 -50q-24 -24 -43.5 -45t-19.5 -42q0 -15 12 -27.5t30 -24.5q15 -9 32.5 -18.5t36.5 -20.5q41 -24 75.5 -58t34.5 -87v-2v-2v-2v-2q-6 -89 -57 -127t-116 -38
q-89 0 -125.5 47t-48.5 118l71 1q6 -48 31 -76t72 -28t74.5 28t27.5 75q0 40 -32 66t-72 49q-1 1 -3 2t-3 2q-42 24 -76.5 52.5t-34.5 72.5q0 32 18.5 57t41.5 48l19.5 19.5t17.5 19.5q10 12 16 23.5t6 24.5v1.5v1.5v0.5v1.5q0 35 -27 60.5t-92 25.5q-64 0 -102.5 -55
t-38.5 -173v-448v0z" />
    <glyph glyph-name="registered" unicode="&#xae;" horiz-adv-x="787" 
d="M24 378q5 164 120.5 262.5t257.5 98.5h11.5t10.5 -1q134 -8 245 -109t111 -256v-6v-6q-6 -165 -102.5 -268t-268.5 -109h-7.5h-7.5q-165 0 -267.5 113t-102.5 280v1zM87 378q0 -143 86.5 -237.5t228.5 -94.5t228.5 83.5t86.5 231.5t-92.5 231.5t-222.5 83.5t-222.5 -90.5
t-92.5 -208.5v1zM260 583h165q77 -1 129 -21.5t52 -97.5q0 -59 -36 -89t-79 -36q-5 0 -9.5 -0.5t-9.5 -0.5l126 -188h-70l-119 189h-86v-189h-63v433v0zM323 528v-134h126q53 -1 73.5 16.5t20.5 53.5q0 41 -26.5 52t-67.5 11l-126 1v0z" />
    <glyph glyph-name="copyright" unicode="&#xa9;" horiz-adv-x="787" 
d="M24 378q5 164 120.5 262.5t257.5 98.5h11.5t10.5 -1q134 -8 245 -109t111 -256v-6v-6q-6 -165 -102.5 -268t-268.5 -109h-7.5h-7.5q-165 0 -267.5 113t-102.5 280v1zM87 378q0 -143 86.5 -237.5t228.5 -94.5t228.5 83.5t86.5 231.5t-92.5 231.5t-222.5 83.5t-222.5 -90.5
t-92.5 -208.5v1zM535 433q-5 46 -39 70t-87 24q-60 0 -91 -39t-39 -85q-2 -9 -2.5 -17.5t-0.5 -16.5q0 -70 42.5 -121.5t106.5 -51.5q47 0 76 30.5t34 71.5l63 1q-4 -71 -48 -108t-96 -47q-9 -1 -18.5 -2t-18.5 -1q-14 0 -28.5 2t-29.5 7q-55 17 -100.5 69.5t-45.5 149.5
q0 90 37.5 136t83.5 63q20 8 39.5 11t35.5 3q77 0 130.5 -36.5t58.5 -113.5l-63 1v0z" />
    <glyph glyph-name="trademark" unicode="&#x2122;" horiz-adv-x="890" 
d="M24 685v47h330v-47h-134v-386h-63v386h-133v0zM425 732h103l118 -307l118 307h102v-433h-63v370l-134 -370h-47l-134 370v-370h-63v433v0z" />
    <glyph glyph-name="acute" unicode="&#xb4;" horiz-adv-x="331" 
d="M173 709h95l-134 -150h-55l94 150v0z" />
    <glyph glyph-name="dieresis" unicode="&#xa8;" horiz-adv-x="315" 
d="M8 717h86v-95h-86v95v0zM181 717h87v-95h-87v95v0z" />
    <glyph glyph-name="AE" unicode="&#x2260;" 
 />
    <glyph glyph-name="Oslash" unicode="&#xc6;" horiz-adv-x="1000" 
d="M425 732h504v-63h-394l40 -260h338v-63h-322l47 -283h299v-63h-362l-32 197h-346l-118 -197h-79l425 732v0zM535 260l-70 401l-237 -401h307v0z" />
    <glyph glyph-name="plusminus" unicode="&#xd8;" horiz-adv-x="772" 
d="M47 8l87 102q-30 40 -50.5 97.5t-20.5 145.5q0 189 87.5 287.5t235.5 98.5q14 0 28 -0.5t28 -2.5q46 -6 91 -24.5t81 -58.5l79 95l39 -31l-86 -103q9 -14 17 -27t15 -26q22 -44 30.5 -91.5t8.5 -116.5q-6 -195 -103.5 -286t-227.5 -91q-81 0 -131.5 28.5t-86.5 62.5
l-1.5 1.5l-1.5 1.5l-78 -94l-40 32v0zM213 126q29 -36 71.5 -58t101.5 -22q107 0 176.5 71t75.5 236q0 19 -3 51.5t-13 68.5q-5 20 -12.5 40t-18.5 37l-378 -424v0zM559 598q-35 46 -80.5 62t-92.5 16q-94 0 -173 -84.5t-79 -238.5q0 -53 12 -100.5t35 -88.5l378 434v0z" />
    <glyph glyph-name="yen" unicode="&#x221e;" 
 />
    <glyph glyph-name="mu" unicode="&#xb1;" horiz-adv-x="500" 
 />
    <glyph glyph-name="ordfeminine" unicode="&#x2264;" 
 />
    <glyph glyph-name="ordmasculine" unicode="&#x2265;" 
 />
    <glyph glyph-name="ae" unicode="&#xa5;" horiz-adv-x="551" 
d="M0 701h87l204 -315l197 315h79l-244 -378h197v-63h-197v-55h197v-63h-197v-142h-71v142h-205v63h205v55h-205v63h197l-244 378v0z" />
    <glyph glyph-name="oslash" unicode="&#xb5;" horiz-adv-x="500" 
 />
    <glyph glyph-name="questiondown" unicode="&#x2202;" 
 />
    <glyph glyph-name="exclamdown" unicode="&#x3a3;" 
 />
    <glyph glyph-name="florin" unicode="&#x220f;" 
 />
    <glyph glyph-name="guillemotleft" unicode="&#x3c0;" 
 />
    <glyph glyph-name="guillemotright" unicode="&#x222b;" 
 />
    <glyph glyph-name="ellipsis" unicode="&#xaa;" horiz-adv-x="299" 
d="M24 378h259v-47h-259v47v0zM31 646q6 40 35 66.5t99 26.5h9.5t9.5 -1q37 -4 68 -29t31 -88q0 -93 1 -133.5t7 -70.5v-0.5v-0.5l-55 1q-1 2 -2.5 5.5t-2.5 6.5q-2 10 -2.5 18.5l-0.5 8.5q-12 -17 -28.5 -27t-34.5 -14q-10 -2 -19.5 -3t-18.5 -1q-13 0 -23.5 1.5t-16.5 3.5
q-24 8 -44 34.5t-21 57.5q0 15 6 30t19 28l0.5 0.5l1.5 1.5q29 28 66.5 32.5t112.5 4.5q1 8 1.5 14t0.5 12q0 33 -16.5 47t-56.5 14h-2h-2q-22 -1 -41.5 -10t-24.5 -37l-56 1v0zM228 567q-70 -1 -106.5 -14t-42.5 -42q0 -1 -0.5 -2.5t-0.5 -2.5v-2.5v-2.5q0 -21 16 -35
t42 -14q7 0 14.5 1t14.5 3q35 10 50 27t15 52q0 7 -0.5 15t-1.5 16v1z" />
    <glyph glyph-name="Agrave" unicode="&#xba;" horiz-adv-x="331" 
d="M8 386h315v-47h-315v47v0zM16 591q0 70 42.5 113t106.5 43q71 0 114.5 -43t43.5 -114q0 -89 -46.5 -131.5t-111.5 -42.5q-64 0 -106.5 48.5t-42.5 125.5v1zM71 591q0 -11 1.5 -25t6.5 -29q8 -27 28 -50t58 -23q47 0 75 36.5t28 89.5q0 7 -1 14.5t-4 15.5q-9 30 -34.5 55
t-63.5 25q-37 0 -57.5 -21t-29.5 -46q-3 -12 -5 -23t-2 -20v1z" />
    <glyph glyph-name="Atilde" unicode="&#x3a9;" 
 />
    <glyph glyph-name="Otilde" unicode="&#xe6;" horiz-adv-x="827" 
d="M55 378q0 75 58 111.5t128 37.5h1.5h1.5q65 0 103.5 -25t61.5 -78q24 53 64.5 78t93.5 25q91 0 152 -65t61 -191v-5.5v-4.5v-4.5v-5.5l-347 1q0 -113 35.5 -156.5t106.5 -49.5q53 0 90.5 39.5t43.5 86.5l71 1q-5 -76 -60.5 -127t-119.5 -60q-7 -1 -13 -1.5t-12 -0.5
q-13 0 -28.5 3t-30.5 8q-39 12 -72.5 40t-41.5 66q-18 -43 -56 -70t-80 -38q-16 -5 -31.5 -7t-29.5 -2q-75 0 -119.5 38.5t-53.5 85.5q-1 6 -1.5 11.5t-0.5 10.5v3t1 3v2.5v2.5q12 112 89 138.5t242 26.5q0 59 -16.5 108.5t-93.5 49.5q-59 0 -92.5 -23t-33.5 -64l-71 1v0z
M354 244q-19 1 -37.5 1.5t-37.5 0.5q-70 0 -123.5 -20t-53.5 -85q0 -52 34 -77t77 -25q5 0 9.5 0.5t8.5 0.5q21 2 40.5 10t35.5 20q24 20 36.5 49.5t12.5 78.5q0 11 -0.5 22t-1.5 23v1zM433 307h284q-6 76 -44.5 116.5t-97.5 40.5q-8 0 -16 -1t-17 -4q-41 -11 -75 -50
t-34 -103v1z" />
    <glyph glyph-name="OE" unicode="&#xf8;" horiz-adv-x="551" 
d="M31 8l71 71q-23 22 -39 70.5t-16 101.5q0 118 65 189t171 71q69 0 103.5 -19t52.5 -41q0 -1 0.5 -1.5l1.5 -1.5l63 72l31 -32l-63 -63q24 -30 40 -75.5t16 -98.5q-5 -138 -64.5 -194t-129.5 -67q-17 -4 -33.5 -5t-32.5 -1q-47 0 -80 16.5t-62 45.5l-63 -70l-32 32v0z
M165 94q4 -5 8.5 -9t9.5 -8q17 -15 39.5 -27t45.5 -12q12 0 25 1.5t26 5.5q49 14 91 61t47 145q0 12 -1.5 27.5t-5.5 31.5t-10 31.5t-15 27.5l-260 -275v0zM402 402q-18 22 -45 38t-74 16q-5 0 -11 -0.5t-11 -1.5q-54 -9 -98.5 -60.5t-44.5 -142.5q0 -10 1.5 -21t3.5 -23
q4 -22 11.5 -42.5t15.5 -31.5l252 269v0z" />
    <glyph glyph-name="oe" unicode="&#xbf;" horiz-adv-x="496" 
d="M323 378v-118q0 -31 -29.5 -61t-64.5 -63q-36 -34 -65.5 -71.5t-29.5 -80.5q0 -62 49.5 -90.5t111.5 -28.5h8.5h8.5q21 1 42 5.5t40 11.5v-63q-20 -7 -42 -11.5t-45 -5.5q-5 -1 -10.5 -1h-11.5q-82 -1 -148 42.5t-66 140.5q0 58 29.5 102.5t65.5 79.5q35 34 64.5 62
t29.5 54v96h63v0zM331 543v-94h-79v94h79v0z" />
    <glyph glyph-name="endash" unicode="&#xa1;" horiz-adv-x="386" 
d="M165 378h63l16 -559h-94l15 559v0zM150 543h86v-94h-86v94v0z" />
    <glyph glyph-name="emdash" unicode="&#xac;" 
 />
    <glyph glyph-name="quotedblleft" unicode="&#x221a;" 
 />
    <glyph glyph-name="quotedblright" unicode="&#x192;" horiz-adv-x="220" 
d="M79 724h63v-724h-63v724v0z" />
    <glyph glyph-name="quoteleft" unicode="&#x2248;" 
 />
    <glyph glyph-name="quoteright" unicode="&#x2206;" 
 />
    <glyph glyph-name="ydieresis" unicode="&#xab;" horiz-adv-x="551" 
d="M102 268l111 197h55l-95 -197l87 -197h-47l-111 197v0zM283 268l111 197h55l-95 -197l87 -197h-47l-111 197v0z" />
    <glyph glyph-name="Ydieresis" unicode="&#xbb;" horiz-adv-x="551" 
d="M213 276l-95 196h55l110 -196l-110 -197h-55l95 197v0zM386 276l-95 196h55l111 -196l-111 -197h-55l95 197v0z" />
    <glyph glyph-name="fraction" unicode="&#x2026;" horiz-adv-x="1000" 
d="M118 94h87v-94h-87v94v0zM457 94h86v-94h-86v94v0zM795 94h87v-94h-87v94v0z" />
    <glyph glyph-name="currency" unicode="&#xc0;" horiz-adv-x="661" 
d="M291 732h79l291 -732h-78l-79 197h-354l-71 -197h-79l291 732v0zM480 260l-149 401l-158 -401h307v0zM213 929h94l95 -149h-56l-133 149v0z" />
    <glyph glyph-name="guilsinglleft" unicode="&#xc3;" horiz-adv-x="661" 
d="M299 732h79l291 -732h-78l-79 197h-355l-70 -197h-79l291 732v0zM488 260l-149 401l-158 -401h307v0zM205 811q7 30 23.5 49t34.5 28q10 5 19 7t17 2q18 0 29 -3.5t21 -8.5q1 0 2 -0.5t2 -1.5q9 -4 18 -7t23 -3q17 0 29 10t18 22l47 1q-9 -36 -26 -55.5t-35 -27.5
q-6 -3 -12.5 -4t-12.5 -1q-18 0 -31 4t-24 8q-12 5 -25 8.5t-31 3.5q-17 0 -29 -10t-18 -22l-39 1v0z" />
    <glyph glyph-name="guilsinglright" unicode="&#xd5;" horiz-adv-x="772" 
d="M71 370q0 159 78.5 268t244.5 109q148 0 229.5 -102.5t96.5 -226.5q2 -14 3 -28.5t1 -28.5v-11.5v-10.5q-6 -131 -83 -239t-247 -108q-178 0 -247.5 108.5t-75.5 268.5v1zM142 370q0 -131 61 -223.5t191 -92.5t191 85.5t61 221.5q0 130 -64 226.5t-188 96.5
q-105 0 -169.5 -77.5t-78.5 -170.5q-2 -12 -3 -24.5t-1 -24.5v-8.5v-9.5v1zM252 811q8 30 24.5 49t34.5 28q9 5 18 7t17 2q18 0 29.5 -3.5t21.5 -8.5q1 -1 2.5 -1.5t2.5 -0.5q8 -4 17 -7t22 -3q18 0 29.5 10t17.5 22l47 1q-8 -36 -25 -55.5t-35 -27.5q-7 -2 -13.5 -3.5
t-12.5 -1.5q-18 0 -30.5 4t-24.5 8q-12 5 -24.5 8.5t-30.5 3.5t-30 -10t-18 -22l-39 1v0z" />
    <glyph glyph-name="fi" unicode="&#x152;" horiz-adv-x="1000" 
d="M63 370q0 159 75.5 264t223.5 105q44 0 74 -7.5t57 -21.5q14 -7 28 -15.5t30 -18.5v48h386v-63h-315v-259h299v-63h-299v-276h331v-63h-402v63q-1 -2 -1.5 -2.5l-1.5 -1.5l-5.5 -5.5l-5.5 -5.5q-24 -26 -59.5 -45t-123.5 -19q-148 0 -216.5 112.5t-74.5 272.5v1zM134 370
q0 -131 61 -227.5t167 -96.5q95 0 142 51.5t47 145.5v277q0 70 -49 113t-132 43q-108 0 -167 -79.5t-68 -174.5q-1 -8 -1.5 -16.5t-0.5 -16.5v-5.5t1 -4.5v-4.5v-5.5v1z" />
    <glyph glyph-name="fl" unicode="&#x153;" horiz-adv-x="882" 
d="M780 173h70q-23 -101 -80 -141t-140 -40q-71 0 -112.5 32t-52.5 85q-12 -53 -62 -85t-127 -32q-94 0 -158.5 67.5t-70.5 191.5q0 107 57.5 187.5t163.5 80.5q79 0 117.5 -25t58.5 -54q6 -10 11 -20t10 -19q17 47 57.5 82.5t123.5 35.5q87 0 146 -70.5t60 -171.5v-8.5
t-1 -8.5q0 -4 -0.5 -8.5t-0.5 -8.5l-346 1q0 -16 1 -32t4 -33q9 -50 36.5 -91.5t84.5 -41.5t87.5 22.5t44.5 49.5q8 15 12 29.5t6 24.5v1zM118 252q0 -17 2.5 -35.5t6.5 -36.5q14 -50 49 -92t100 -42h1.5h1.5q58 1 106 47.5t48 157.5q0 101 -41 157t-124 56
q-59 0 -104.5 -65t-45.5 -148v1zM780 299v6v6q1 63 -31.5 100.5t-72.5 48.5q-7 2 -15 3t-15 1q-14 0 -32 -3t-38 -15q-23 -15 -45 -49t-35 -99l284 1v0z" />
    <glyph glyph-name="daggerdbl" horiz-adv-x="496" 
d="M0 307h504v-63h-504v63v0z" />
    <glyph glyph-name="periodcentered" unicode="&#x2014;" horiz-adv-x="1000" 
d="M0 291h1000v-63h-1000v63v0z" />
    <glyph glyph-name="quotedblbase" unicode="&#x201c;" horiz-adv-x="551" 
d="M118 520l71 204h55l-39 -204h-87v0zM307 520l71 204h55l-39 -204h-87v0z" />
    <glyph glyph-name="perthousand" unicode="&#x201d;" horiz-adv-x="551" 
d="M173 724h87l-79 -212h-55l47 212v0zM307 512l47 212h87l-79 -212h-55v0z" />
    <glyph glyph-name="Acircumflex" unicode="&#x2018;" 
d="M142 732h55l-47 -212h-87l79 212v0z" />
    <glyph glyph-name="Ecircumflex" unicode="&#x2019;" 
d="M126 724h87l-79 -212h-55l47 212v0z" />
    <glyph glyph-name="Aacute" unicode="&#xf7;" 
 />
    <glyph glyph-name="Edieresis" unicode="&#x25ca;" 
 />
    <glyph glyph-name="Egrave" unicode="&#xff;" horiz-adv-x="496" 
d="M0 496h79l173 -402l165 402h71l-283 -685h-71l79 197l-213 488v0zM126 717h87v-95h-87v95v0zM299 717h87v-95h-87v95v0z" />
    <glyph glyph-name="Iacute" unicode="&#x178;" horiz-adv-x="500" 
 />
    <glyph glyph-name="Icircumflex" unicode="&#x2215;" horiz-adv-x="500" 
 />
    <glyph glyph-name="Idieresis" unicode="&#xa4;" horiz-adv-x="551" 
d="M94 551l40 -39q33 23 74 36t84 13h6h6q37 -2 72.5 -14t64.5 -36l39 40l55 -55l-39 -39q15 -23 25 -46.5t16 -46.5q3 -14 4.5 -28t1.5 -28q0 -43 -14.5 -83t-40.5 -69l40 -38l-56 -55l-39 39q-27 -25 -59.5 -39t-66.5 -17q-5 0 -10.5 -0.5t-11.5 -0.5q-42 0 -81 14.5
t-70 41.5l-40 -38l-55 55l40 39q-25 31 -37.5 69t-12.5 78q0 42 13 81.5t37 70.5l-40 40l55 55v0zM465 307q0 70 -52.5 121t-129.5 51q-76 0 -128.5 -54t-52.5 -119q0 -76 52.5 -128.5t128.5 -52.5q83 0 129.5 49.5t52.5 131.5v1z" />
    <glyph glyph-name="Igrave" unicode="&#x2039;" 
d="M55 268l110 197h55l-94 -197l87 -197h-48l-110 197v0z" />
    <glyph glyph-name="Oacute" unicode="&#x203a;" 
d="M150 268l-95 197h55l110 -197l-110 -197h-55l95 197v0z" />
    <glyph glyph-name="Ocircumflex" unicode="&#xf001;" horiz-adv-x="528" 
d="M118 504v110q0 67 34 93.5t74 27.5h3.5h2.5q18 0 35.5 -3.5t31.5 -8.5v-54q-11 4 -22.5 6.5t-22.5 2.5q-29 0 -51 -20.5t-22 -67.5v-86h118v-55h-118v-449h-63v449h-102v55h102v0zM402 504h63v-504h-63v504v0zM394 724h78v-78h-78v78v0z" />
    <glyph glyph-name="Ograve" unicode="&#xf002;" horiz-adv-x="520" 
d="M118 504v110q0 67 34 93.5t74 27.5h3.5h2.5q18 0 35.5 -3.5t31.5 -8.5v-54q-11 4 -22.5 6.5t-22.5 2.5q-29 0 -51 -20.5t-22 -67.5v-86h118v-55h-118v-449h-63v449h-102v55h102v0zM402 724h63v-724h-63v724v0z" />
    <glyph glyph-name="Uacute" unicode="&#x2021;" horiz-adv-x="551" 
d="M79 559h173v173h63v-173h173v-63h-173v-252h173v-63h-173v-181h-63v181h-173v63h173v252h-173v63v0z" />
    <glyph glyph-name="Ucircumflex" unicode="&#x2219;" horiz-adv-x="496" 
d="M71 370q0 82 59 135t130 53t126 -52t55 -129q0 -76 -49 -132.5t-132 -56.5q-82 0 -132.5 55.5t-56.5 125.5v1z" />
    <glyph glyph-name="Ugrave" unicode="&#x201a;" 
 />
    <glyph glyph-name="dotlessi" unicode="&#x201e;" horiz-adv-x="551" 
d="M173 94h87l-79 -212h-55l47 212v0zM307 -118l47 212h87l-79 -212h-55v0z" />
    <glyph glyph-name="circumflex" unicode="&#x2030;" horiz-adv-x="1000" 
d="M339 150q0 70 39.5 117t109.5 47q71 0 106.5 -50t35.5 -115t-36.5 -111t-113.5 -46q-76 0 -108.5 43t-32.5 114v1zM567 150q0 46 -19 81.5t-60 35.5t-63.5 -32.5t-22.5 -85.5t18.5 -82t59.5 -29t64 26t23 85v1zM685 150q0 76 42.5 120t107.5 44t107 -47t42 -118t-39 -114
t-110 -43t-107.5 43t-42.5 114v1zM921 150q0 58 -22.5 83.5t-63.5 25.5t-64 -31.5t-23 -78.5t23 -79t64 -32t63.5 26t22.5 85v1zM520 717h63l-426 -717h-63l426 717v0zM31 551q5 81 39.5 117t74.5 44q9 2 18 3t18 1q10 0 21 -1.5t22 -5.5q40 -13 73.5 -51.5t33.5 -107.5
q0 -88 -45.5 -126.5t-104.5 -38.5t-104.5 38.5t-45.5 126.5v1zM268 551q0 58 -23 87.5t-64 29.5q-47 0 -67 -35.5t-20 -82.5v-9.5t1 -9.5q2 -37 20.5 -68t65.5 -31t65.5 31t20.5 68q1 5 1 9.5v9.5v1z" />
    <glyph glyph-name="tilde" unicode="&#xc2;" horiz-adv-x="661" 
d="M299 732h79l291 -732h-78l-79 197h-355l-70 -197h-79l291 732v0zM488 260l-149 401l-158 -401h307v0zM307 929h79l102 -149h-55l-87 102l-86 -102h-55l102 149v0z" />
    <glyph glyph-name="macron" unicode="&#xca;" horiz-adv-x="606" 
d="M102 724h433v-63h-362v-259h347v-63h-347v-276h378v-63h-449v724v0zM283 929h79l103 -149h-56l-86 102l-87 -102h-55l102 149v0z" />
    <glyph glyph-name="breve" unicode="&#xc1;" horiz-adv-x="661" 
d="M291 732h79l291 -732h-78l-79 197h-354l-71 -197h-79l291 732v0zM480 260l-149 401l-158 -401h307v0zM323 937h94l-134 -150h-55l95 150v0z" />
    <glyph glyph-name="dotaccent" unicode="&#xcb;" horiz-adv-x="606" 
d="M102 724h433v-63h-362v-259h347v-63h-347v-276h378v-63h-449v724v0zM197 898h86v-95h-86v95v0zM370 898h87v-95h-87v95v0z" />
    <glyph glyph-name="ring" unicode="&#xc8;" horiz-adv-x="606" 
d="M102 724h433v-63h-362v-259h347v-63h-347v-276h378v-63h-449v724v0zM173 929h95l94 -149h-55l-134 149v0z" />
    <glyph glyph-name="cedilla" unicode="&#xcd;" 
d="M102 724h71v-724h-71v724v0zM173 929h95l-134 -149h-55l94 149v0z" />
    <glyph glyph-name="hungarumlaut" unicode="&#xce;" 
d="M102 724h71v-724h-71v724v0zM94 929h79l103 -149h-56l-86 102l-87 -102h-55l102 149v0z" />
    <glyph glyph-name="ogonek" unicode="&#xcf;" 
d="M102 724h71v-724h-71v724v0zM8 906h86v-95h-86v95v0zM181 906h87v-95h-87v95v0z" />
    <glyph glyph-name="caron" unicode="&#xcc;" 
d="M102 724h71v-724h-71v724v0zM8 929h94l95 -149h-55l-134 149v0z" />
    <glyph glyph-name="Lslash" unicode="&#xd3;" horiz-adv-x="772" 
d="M71 370q0 159 78.5 268t244.5 109q148 0 229.5 -102.5t96.5 -226.5q2 -14 3 -28.5t1 -28.5v-11.5v-10.5q-6 -131 -83 -239t-247 -108q-178 0 -247.5 108.5t-75.5 268.5v1zM142 370q0 -131 61 -223.5t191 -92.5t191 85.5t61 221.5q0 130 -64 226.5t-188 96.5
q-105 0 -169.5 -77.5t-78.5 -170.5q-2 -12 -3 -24.5t-1 -24.5v-8.5v-9.5v1zM402 937h94l-134 -150h-55l95 150v0z" />
    <glyph glyph-name="lslash" unicode="&#xd4;" horiz-adv-x="772" 
d="M71 370q0 159 78.5 268t244.5 109q148 0 229.5 -102.5t96.5 -226.5q2 -14 3 -28.5t1 -28.5v-11.5v-10.5q-6 -131 -83 -239t-247 -108q-178 0 -247.5 108.5t-75.5 268.5v1zM142 370q0 -131 61 -223.5t191 -92.5t191 85.5t61 221.5q0 130 -64 226.5t-188 96.5
q-105 0 -169.5 -77.5t-78.5 -170.5q-2 -12 -3 -24.5t-1 -24.5v-8.5v-9.5v1zM354 937h79l102 -150h-55l-86 103l-87 -103h-55l102 150v0z" />
    <glyph glyph-name="Scaron" unicode="&#xf000;" 
 />
    <glyph glyph-name="scaron" unicode="&#xd2;" 
 />
    <glyph glyph-name="Eth" unicode="&#xda;" horiz-adv-x="717" 
d="M94 724h71v-456q0 -113 58.5 -167.5t146.5 -54.5q89 0 139 57.5t50 163.5v457h71v-456q0 -119 -56 -201.5t-204 -82.5t-212 79.5t-64 203.5v457v0zM394 929h94l-134 -149h-55l95 149v0z" />
    <glyph glyph-name="eth" unicode="&#xdb;" horiz-adv-x="717" 
d="M94 724h71v-456q0 -113 58.5 -167.5t146.5 -54.5q89 0 139 57.5t50 163.5v457h71v-456q0 -119 -56 -201.5t-204 -82.5t-212 79.5t-64 203.5v457v0zM323 929h79l102 -149h-55l-87 102l-86 -102h-56l103 149v0z" />
    <glyph glyph-name="Thorn" unicode="&#xd9;" horiz-adv-x="717" 
d="M94 724h71v-456q0 -113 58.5 -167.5t146.5 -54.5q89 0 139 57.5t50 163.5v457h71v-456q0 -119 -56 -201.5t-204 -82.5t-212 79.5t-64 203.5v457v0zM228 937h95l94 -150h-55l-134 150v0z" />
    <glyph glyph-name="thorn" unicode="&#x131;" horiz-adv-x="205" 
d="M79 504h63v-504h-63v504v0z" />
    <glyph glyph-name="onehalf" unicode="&#x2dc;" horiz-adv-x="331" 
d="M102 709h79l102 -150h-55l-86 102l-87 -102h-55l102 150v0z" />
    <glyph glyph-name="arrowright" unicode="&#x2c6;" horiz-adv-x="323" 
d="M0 591q8 30 24.5 49t34.5 27q9 5 18 7t17 2q18 0 29.5 -3.5t21.5 -7.5q1 -1 2.5 -1.5t2.5 -1.5q8 -3 17 -6t22 -3q18 0 29.5 9.5t17.5 21.5l47 1q-8 -36 -25 -55.5t-35 -27.5q-7 -2 -13.5 -3.5t-12.5 -1.5q-18 0 -30.5 4t-24.5 8q-12 5 -24.5 8.5t-30.5 3.5
q-17 0 -28.5 -9t-18.5 -19q0 -1 -0.5 -1.5t-0.5 -1.5l-39 1v0z" />
    <glyph glyph-name="house" unicode="&#x2c9;" horiz-adv-x="500" 
 />
    <glyph glyph-name="endash" unicode="&#x2d8;" horiz-adv-x="323" 
d="M16 724h23q5 -23 26 -35.5t46 -17.5q8 -2 16 -2.5t15 -0.5t15.5 1t16.5 2q24 5 45 17.5t25 34.5l24 1q0 -59 -36.5 -81t-89.5 -22q-47 0 -86.5 22t-39.5 80v1z" />
    <glyph glyph-name="sfthyphen" unicode="&#x2d9;" horiz-adv-x="500" 
 />
    <glyph glyph-name="filledbox" unicode="&#x2da;" 
d="M55 654q0 34 23 59.5t64 25.5t67.5 -22.5t26.5 -63.5q0 -47 -26.5 -71t-67.5 -24t-64 26.5t-23 68.5v1zM197 654q0 22 -16 34t-39 12t-35 -14t-13 -30v-1.5v-1.5q0 -4 0.5 -7.5t0.5 -7.5q3 -15 13 -28t34 -13q29 0 42 16t13 40v1z" />
    <glyph glyph-name="bullet" unicode="&#xb8;" horiz-adv-x="260" 
d="M150 8l-16 -63q7 1 13.5 2t12.5 1q35 0 55 -18.5t20 -42.5q0 -4 -0.5 -7.5t-1.5 -7.5q0 -3 -1.5 -6.5t-3.5 -7.5q-10 -20 -36 -30.5t-60 -10.5q-12 0 -24 1t-24 4q-16 3 -31 8t-29 13l7 31q28 -14 53 -20t44 -6q14 0 23.5 2.5t13.5 7.5q5 5 7.5 11t2.5 12v1.5v1.5
q-1 12 -14 22t-41 10q-7 0 -15.5 -1t-17.5 -2l31 95h32v0z" />
    <glyph glyph-name="uni02BA" unicode="&#x2ba;" horiz-adv-x="500" 
 />
    <glyph glyph-name="glyph223" unicode="&#x2db;" horiz-adv-x="500" 
 />
    <glyph glyph-name="glyph224" unicode="&#x2c7;" horiz-adv-x="500" 
 />
    <glyph glyph-name="glyph225" unicode="&#x141;" horiz-adv-x="500" 
 />
    <glyph glyph-name="glyph226" unicode="&#x142;" horiz-adv-x="500" 
 />
    <glyph glyph-name="glyph227" unicode="&#x160;" horiz-adv-x="500" 
 />
    <glyph glyph-name="glyph228" unicode="&#x161;" horiz-adv-x="500" 
 />
    <glyph glyph-name="Zcaron" unicode="&#x17d;" 
 />
    <glyph glyph-name="zcaron" unicode="&#x17e;" 
 />
    <glyph glyph-name="brokenbar" unicode="&#xa6;" 
 />
    <glyph glyph-name="glyph232" unicode="&#xd0;" horiz-adv-x="500" 
 />
    <glyph glyph-name="glyph233" unicode="&#xf0;" horiz-adv-x="500" 
 />
    <glyph glyph-name="Yacute" unicode="&#xdd;" 
 />
    <glyph glyph-name="yacute" unicode="&#xfd;" 
 />
    <glyph glyph-name="glyph236" unicode="&#xde;" horiz-adv-x="500" 
 />
    <glyph glyph-name="glyph237" unicode="&#xfe;" horiz-adv-x="500" 
 />
    <glyph glyph-name="minus" unicode="&#x2212;" 
 />
    <glyph glyph-name="multiply" unicode="&#xd7;" 
 />
    <glyph glyph-name="uni00B9" unicode="&#xb9;" 
 />
    <glyph glyph-name="uni00B2" unicode="&#xb2;" 
 />
    <glyph glyph-name="uni00B3" unicode="&#xb3;" 
 />
    <glyph glyph-name="glyph243" unicode="&#xbd;" horiz-adv-x="500" 
 />
    <glyph glyph-name="onequarter" unicode="&#xbc;" 
 />
    <glyph glyph-name="threequarters" unicode="&#xbe;" 
 />
    <glyph glyph-name="franc" unicode="&#x20a3;" 
 />
    <glyph glyph-name="Gbreve" unicode="&#x11e;" 
 />
    <glyph glyph-name="gbreve" unicode="&#x11f;" 
 />
    <glyph glyph-name="Idotaccent" unicode="&#x130;" 
 />
    <glyph glyph-name="Scedilla" unicode="&#x15e;" 
 />
    <glyph glyph-name="scedilla" unicode="&#x15f;" 
 />
    <glyph glyph-name="Cacute" unicode="&#x106;" 
 />
    <glyph glyph-name="cacute" unicode="&#x107;" 
 />
    <glyph glyph-name="Ccaron" unicode="&#x10c;" 
 />
    <glyph glyph-name="ccaron" unicode="&#x10d;" 
 />
    <glyph glyph-name="dcroat" unicode="&#x111;" 
 />
    <glyph glyph-name="glyph257" unicode="&#x2192;" horiz-adv-x="500" 
 />
    <glyph glyph-name="glyph258" unicode="&#x2302;" 
 />
    <glyph glyph-name="glyph259" unicode="&#x2013;" horiz-adv-x="496" 
d="M0 307h504v-63h-504v63v0z" />
    <glyph glyph-name="uni00AD" unicode="&#xad;" horiz-adv-x="500" 
 />
    <glyph glyph-name="glyph261" unicode="&#x25a0;" horiz-adv-x="500" 
 />
    <glyph glyph-name="glyph262" unicode="&#x2022;" horiz-adv-x="252" 
d="M94 307h87v-94h-87v94v0z" />
    <glyph glyph-name="glyph263" unicode="&#xaf;" 
 />
    <glyph glyph-name="glyph264" unicode="&#xb0;" 
 />
    <glyph glyph-name="glyph265" unicode="&#xb7;" 
 />
    <glyph glyph-name="underscoredbl" unicode="&#x2017;" 
 />
    <glyph glyph-name="exclamdbl" unicode="&#x203c;" 
 />
    <glyph glyph-name="uni207F" unicode="&#x207f;" 
 />
    <glyph glyph-name="peseta" unicode="&#x20a7;" 
 />
    <glyph glyph-name="Gamma" unicode="&#x393;" 
 />
    <glyph glyph-name="Theta" unicode="&#x398;" 
 />
    <glyph glyph-name="Phi" unicode="&#x3a6;" 
 />
    <glyph glyph-name="alpha" unicode="&#x3b1;" 
 />
    <glyph glyph-name="delta" unicode="&#x3b4;" 
 />
    <glyph glyph-name="epsilon" unicode="&#x3b5;" 
 />
    <glyph glyph-name="sigma" unicode="&#x3c3;" 
 />
    <glyph glyph-name="tau" unicode="&#x3c4;" 
 />
    <glyph glyph-name="phi" unicode="&#x3c6;" 
 />
    <glyph glyph-name="arrowleft" unicode="&#x2190;" 
 />
    <glyph glyph-name="arrowup" unicode="&#x2191;" 
 />
    <glyph glyph-name="arrowdown" unicode="&#x2193;" 
 />
    <glyph glyph-name="arrowboth" unicode="&#x2194;" 
 />
    <glyph glyph-name="arrowupdn" unicode="&#x2195;" 
 />
    <glyph glyph-name="arrowupdnbse" unicode="&#x21a8;" 
 />
    <glyph glyph-name="orthogonal" unicode="&#x221f;" 
 />
    <glyph glyph-name="intersection" unicode="&#x2229;" 
 />
    <glyph glyph-name="equivalence" unicode="&#x2261;" 
 />
    <glyph glyph-name="revlogicalnot" unicode="&#x2310;" 
 />
    <glyph glyph-name="integraltp" unicode="&#x2320;" 
 />
    <glyph glyph-name="integralbt" unicode="&#x2321;" 
 />
    <glyph glyph-name="filledrect" unicode="&#x25ac;" 
 />
    <glyph glyph-name="circle" unicode="&#x25cb;" 
 />
    <glyph glyph-name="triagup" unicode="&#x25b2;" 
 />
    <glyph glyph-name="triagrt" unicode="&#x25ba;" 
 />
    <glyph glyph-name="triagdn" unicode="&#x25bc;" 
 />
    <glyph glyph-name="triaglf" unicode="&#x25c4;" 
 />
    <glyph glyph-name="invbullet" unicode="&#x25d8;" 
 />
    <glyph glyph-name="invcircle" unicode="&#x25d9;" 
 />
    <glyph glyph-name="Rcaron" unicode="&#x158;" 
 />
    <glyph glyph-name="upblock" unicode="&#x2580;" 
 />
    <glyph glyph-name="dnblock" unicode="&#x2584;" 
 />
    <glyph glyph-name="block" unicode="&#x2588;" 
 />
    <glyph glyph-name="lfblock" unicode="&#x258c;" 
 />
    <glyph glyph-name="rtblock" unicode="&#x2590;" 
 />
    <glyph glyph-name="ltshade" unicode="&#x2591;" 
 />
    <glyph glyph-name="shade" unicode="&#x2592;" 
 />
    <glyph glyph-name="dkshade" unicode="&#x2593;" 
 />
    <glyph glyph-name="smileface" unicode="&#x263a;" 
 />
    <glyph glyph-name="invsmileface" unicode="&#x263b;" 
 />
    <glyph glyph-name="sun" unicode="&#x263c;" 
 />
    <glyph glyph-name="female" unicode="&#x2640;" 
 />
    <glyph glyph-name="male" unicode="&#x2642;" 
 />
    <glyph glyph-name="spade" unicode="&#x2660;" 
 />
    <glyph glyph-name="club" unicode="&#x2663;" 
 />
    <glyph glyph-name="heart" unicode="&#x2665;" 
 />
    <glyph glyph-name="diamond" unicode="&#x2666;" 
 />
    <glyph glyph-name="musicalnote" unicode="&#x266a;" 
 />
    <glyph glyph-name="musicalnotedbl" unicode="&#x266b;" 
 />
    <glyph glyph-name="Abreve" unicode="&#x102;" 
 />
    <glyph glyph-name="abreve" unicode="&#x103;" 
 />
    <glyph glyph-name="Aogonek" unicode="&#x104;" 
 />
    <glyph glyph-name="aogonek" unicode="&#x105;" 
 />
    <glyph glyph-name="Dcaron" unicode="&#x10e;" 
 />
    <glyph glyph-name="dcaron" unicode="&#x10f;" 
 />
    <glyph glyph-name="Dcroat" unicode="&#x110;" 
 />
    <glyph glyph-name="Eogonek" unicode="&#x118;" 
 />
    <glyph glyph-name="eogonek" unicode="&#x119;" 
 />
    <glyph glyph-name="Ecaron" unicode="&#x11a;" 
 />
    <glyph glyph-name="ecaron" unicode="&#x11b;" 
 />
    <glyph glyph-name="Lacute" unicode="&#x139;" 
 />
    <glyph glyph-name="lacute" unicode="&#x13a;" 
 />
    <glyph glyph-name="Lcaron" unicode="&#x13d;" 
 />
    <glyph glyph-name="lcaron" unicode="&#x13e;" 
 />
    <glyph glyph-name="Nacute" unicode="&#x143;" 
 />
    <glyph glyph-name="nacute" unicode="&#x144;" 
 />
    <glyph glyph-name="Ncaron" unicode="&#x147;" 
 />
    <glyph glyph-name="ncaron" unicode="&#x148;" 
 />
    <glyph glyph-name="Ohungarumlaut" unicode="&#x150;" 
 />
    <glyph glyph-name="ohungarumlaut" unicode="&#x151;" 
 />
    <glyph glyph-name="Racute" unicode="&#x154;" 
 />
    <glyph glyph-name="racute" unicode="&#x155;" 
 />
    <glyph glyph-name="rcaron" unicode="&#x159;" 
 />
    <glyph glyph-name="Sacute" unicode="&#x15a;" 
 />
    <glyph glyph-name="sacute" unicode="&#x15b;" 
 />
    <glyph glyph-name="uni0162" unicode="&#x162;" 
 />
    <glyph glyph-name="uni0163" unicode="&#x163;" 
 />
    <glyph glyph-name="Tcaron" unicode="&#x164;" 
 />
    <glyph glyph-name="tcaron" unicode="&#x165;" 
 />
    <glyph glyph-name="Uring" unicode="&#x16e;" 
 />
    <glyph glyph-name="uring" unicode="&#x16f;" 
 />
    <glyph glyph-name="uhungarumlaut" unicode="&#x171;" 
 />
    <glyph glyph-name="Uhungarumlaut" unicode="&#x170;" 
 />
    <glyph glyph-name="Zacute" unicode="&#x179;" 
 />
    <glyph glyph-name="zacute" unicode="&#x17a;" 
 />
    <glyph glyph-name="Zdotaccent" unicode="&#x17b;" 
 />
    <glyph glyph-name="zdotaccent" unicode="&#x17c;" 
 />
    <glyph glyph-name="Ldot" unicode="&#x13f;" 
 />
    <glyph glyph-name="ldot" unicode="&#x140;" 
 />
    <glyph glyph-name="SF100000" unicode="&#x2500;" 
 />
    <glyph glyph-name="SF110000" unicode="&#x2502;" 
 />
    <glyph glyph-name="SF010000" unicode="&#x250c;" 
 />
    <glyph glyph-name="SF030000" unicode="&#x2510;" 
 />
    <glyph glyph-name="SF020000" unicode="&#x2514;" 
 />
    <glyph glyph-name="SF040000" unicode="&#x2518;" 
 />
    <glyph glyph-name="SF080000" unicode="&#x251c;" 
 />
    <glyph glyph-name="SF090000" unicode="&#x2524;" 
 />
    <glyph glyph-name="SF060000" unicode="&#x252c;" 
 />
    <glyph glyph-name="SF070000" unicode="&#x2534;" 
 />
    <glyph glyph-name="SF050000" unicode="&#x253c;" 
 />
    <glyph glyph-name="SF430000" unicode="&#x2550;" 
 />
    <glyph glyph-name="SF240000" unicode="&#x2551;" 
 />
    <glyph glyph-name="SF510000" unicode="&#x2552;" 
 />
    <glyph glyph-name="SF520000" unicode="&#x2553;" 
 />
    <glyph glyph-name="SF390000" unicode="&#x2554;" 
 />
    <glyph glyph-name="SF220000" unicode="&#x2555;" 
 />
    <glyph glyph-name="SF210000" unicode="&#x2556;" 
 />
    <glyph glyph-name="SF250000" unicode="&#x2557;" 
 />
    <glyph glyph-name="SF500000" unicode="&#x2558;" 
 />
    <glyph glyph-name="SF490000" unicode="&#x2559;" 
 />
    <glyph glyph-name="SF380000" unicode="&#x255a;" 
 />
    <glyph glyph-name="SF280000" unicode="&#x255b;" 
 />
    <glyph glyph-name="SF270000" unicode="&#x255c;" 
 />
    <glyph glyph-name="SF260000" unicode="&#x255d;" 
 />
    <glyph glyph-name="SF360000" unicode="&#x255e;" 
 />
    <glyph glyph-name="SF370000" unicode="&#x255f;" 
 />
    <glyph glyph-name="SF420000" unicode="&#x2560;" 
 />
    <glyph glyph-name="SF190000" unicode="&#x2561;" 
 />
    <glyph glyph-name="SF200000" unicode="&#x2562;" 
 />
    <glyph glyph-name="SF230000" unicode="&#x2563;" 
 />
    <glyph glyph-name="SF470000" unicode="&#x2564;" 
 />
    <glyph glyph-name="SF480000" unicode="&#x2565;" 
 />
    <glyph glyph-name="SF410000" unicode="&#x2566;" 
 />
    <glyph glyph-name="SF450000" unicode="&#x2567;" 
 />
    <glyph glyph-name="SF460000" unicode="&#x2568;" 
 />
    <glyph glyph-name="SF400000" unicode="&#x2569;" 
 />
    <glyph glyph-name="SF540000" unicode="&#x256a;" 
 />
    <glyph glyph-name="SF530000" unicode="&#x256b;" 
 />
    <glyph glyph-name="SF440000" unicode="&#x256c;" 
 />
    </font>
</defs>
</svg>
