<?xml version="1.0" standalone="no"?>
<!DOCTYPE svg PUBLIC "-//W3C//DTD SVG 1.1//EN" "http://www.w3.org/Graphics/SVG/1.1/DTD/svg11.dtd" >
<svg xmlns="http://www.w3.org/2000/svg" xmlns:xlink="http://www.w3.org/1999/xlink" version="1.1">
<metadata>
Created by FontForge 20161013 at Fri Jan  1 02:30:17 1904
 By ,,,
Converted by ALLTYPE
</metadata>
<defs>
<font id="Univers-Black-Normal" horiz-adv-x="331" >
  <font-face 
    font-family="Harvard"
    font-weight="5"
    font-stretch="normal"
    units-per-em="1000"
    panose-1="0 0 0 0 0 0 0 0 0 0"
    ascent="800"
    descent="-200"
    x-height="504"
    cap-height="724"
    bbox="-110 -213 1000 1016"
    underline-thickness="50"
    underline-position="-155"
    unicode-range="U+0020-F002"
  />
<missing-glyph 
 />
    <glyph glyph-name=".notdef" 
 />
    <glyph glyph-name="glyph1" horiz-adv-x="0" 
 />
    <glyph glyph-name="glyph2" 
 />
    <glyph glyph-name="space" unicode=" " 
 />
    <glyph glyph-name="space" unicode="&#xa0;" 
 />
    <glyph glyph-name="exclam" unicode="!" horiz-adv-x="441" 
d="M126 157h189v-157h-189v157v0zM110 724h221l-32 -511h-157l-32 511v0z" />
    <glyph glyph-name="quotedbl" unicode="&#x22;" horiz-adv-x="504" 
d="M94 717h126v-276h-126v276v0zM276 717h126v-276h-126v276v0z" />
    <glyph glyph-name="numbersign" unicode="#" horiz-adv-x="669" 
d="M213 394h-95v94h110l32 205h94l-31 -205h71l31 205h95l-32 -205h87v-94h-103l-7 -79h86v-95h-102l-32 -220h-94l31 220h-71l-31 -220h-95l32 220h-95v95h111l8 79v0zM378 394h-71l-8 -79h71l8 79v0z" />
    <glyph glyph-name="dollar" unicode="$" horiz-adv-x="669" 
d="M24 228h204q0 -42 14 -70.5t49 -40.5v166q-10 1 -20 3.5t-19 4.5q-113 27 -160 66t-53 138q0 89 67 148t185 65v95h87v-94q5 -1 10.5 -1t10.5 -1q84 -5 153.5 -57t69.5 -163l-205 1q0 29 -10.5 47.5t-28.5 30.5v-141q11 -4 22.5 -7t22.5 -6q96 -25 159.5 -63.5
t63.5 -144.5q0 -103 -63.5 -153t-140.5 -62q-16 -2 -32 -3.5t-32 -1.5v-94h-87v94q-118 0 -190 59.5t-77 183.5v1zM378 260v-142q25 9 44.5 28.5t23.5 41.5q1 2 1 4.5v4.5q0 19 -15.5 35.5t-53.5 26.5v1zM291 567q-28 -11 -39.5 -26.5t-11.5 -32.5q0 -21 15.5 -38.5
t35.5 -21.5v119v0z" />
    <glyph glyph-name="percent" unicode="%" horiz-adv-x="1000" 
d="M598 197v0.5v1.5q1 70 34 128t132 58q101 0 141 -50t40 -139q0 -88 -33.5 -154t-139.5 -66t-140 60t-34 160v1zM724 189v-10.5v-9.5q2 -37 11.5 -68t36.5 -31q29 0 38 35.5t9 82.5t-12 74.5t-35 27.5q-24 0 -36 -30.5t-12 -71.5v1zM622 701h118l-354 -701h-118l354 701v0
zM63 496q0 106 46.5 155t134.5 49q89 0 131 -46t42 -159q0 -112 -42 -158.5t-131 -46.5q-88 0 -131.5 46.5t-49.5 158.5v1zM283 496v13.5v15.5q-1 30 -8.5 55t-30.5 25q-29 0 -38 -32.5t-9 -85.5t9 -77.5t38 -24.5t34 25.5t5 84.5v1z" />
    <glyph glyph-name="ampersand" unicode="&#x26;" horiz-adv-x="890" 
d="M220 402q-35 16 -65.5 56.5t-36.5 99.5v3.5v2.5q-1 2 -1 3.5v2.5q0 8 1 16.5t3 16.5q14 51 77.5 93.5t203.5 42.5q141 0 208 -50.5t68 -118.5v-2.5v-3.5q-1 -1 -1 -2.5v-3.5q-5 -58 -39.5 -96t-75.5 -68q-8 -6 -17 -12.5t-17 -12.5l94 -93q24 22 36.5 53.5t18.5 78.5
l181 1q0 -13 -1.5 -25t-3.5 -25q-8 -42 -25.5 -81.5t-36.5 -69.5q-12 -18 -23 -31.5t-20 -20.5l158 -156h-260l-48 47q-5 -6 -15 -12t-24 -13q-33 -14 -87.5 -26t-125.5 -12h-1.5h-1.5q-105 7 -194.5 46.5t-101.5 157.5v3.5v2.5q-1 2 -1 3.5v3.5q0 66 50.5 119t123.5 81v1z
M488 157l-126 126l-12 -2t-12 -3q-27 -9 -49.5 -34t-23.5 -54q0 -4 1 -8.5t2 -9.5q7 -24 39 -38.5t72 -14.5h12t13 1q22 3 44 12t40 24v1zM394 480q29 17 53.5 40.5t24.5 53.5q0 29 -24.5 42t-53.5 13q-34 0 -49.5 -17t-15.5 -38v-4t1 -4q0 -2 0.5 -4t0.5 -4q6 -23 22.5 -42
t40.5 -37v1z" />
    <glyph glyph-name="quotesingle" unicode="'" 
d="M47 465l63 267h197l-118 -267h-142v0z" />
    <glyph glyph-name="parenleft" unicode="(" 
d="M47 307q0 85 20 164.5t44 140.5q16 40 30.5 70t23.5 49l126 1q-7 -22 -15.5 -48t-17.5 -55q-19 -64 -35.5 -142t-17.5 -158v-3.5v-3.5q0 -40 5.5 -86.5t15.5 -94.5q10 -50 22.5 -97.5t25.5 -87.5q4 -14 8.5 -26.5t8.5 -23.5h-134q-9 24 -22 58.5t-27 73.5q-9 25 -17.5 52
t-16.5 54q-12 43 -19.5 84.5t-7.5 77.5v1z" />
    <glyph glyph-name="parenright" unicode=")" 
d="M173 -94h-126q7 15 15.5 39t16.5 53q11 34 21 76t18 85q7 41 11.5 80.5t4.5 74.5q0 33 -4 69t-11 73t-15.5 74t-17.5 70q-11 41 -21.5 73t-17.5 50l134 1q8 -23 22 -57.5t30 -77.5q16 -45 31 -96t22 -104q3 -17 4 -33.5t1 -33.5q0 -9 -1 -17.5t-1 -16.5q-8 -88 -32 -172
t-51 -144q-8 -20 -16.5 -36.5t-16.5 -29.5v0z" />
    <glyph glyph-name="asterisk" unicode="*" horiz-adv-x="559" 
d="M220 543l-94 103l110 63l47 -134l40 134l110 -63l-94 -103l141 32v-134l-141 31l102 -110l-118 -63l-40 134l-47 -134l-110 71l94 102l-133 -31v134l133 -32v0z" />
    <glyph glyph-name="plus" unicode="+" horiz-adv-x="661" 
d="M268 315v189h126v-189h197v-126h-197v-189h-126v189h-197v126h197v0z" />
    <glyph glyph-name="comma" unicode="," 
d="M102 157h197l-126 -275h-142l71 275v0z" />
    <glyph glyph-name="hyphen" unicode="-" 
d="M24 331h283v-126h-283v126v0z" />
    <glyph glyph-name="period" unicode="." 
d="M71 150h189v-150h-189v150v0z" />
    <glyph glyph-name="slash" unicode="/" horiz-adv-x="276" 
d="M181 724h142l-236 -818h-142l236 818v0z" />
    <glyph glyph-name="zero" unicode="0" horiz-adv-x="669" 
d="M31 354q0 182 88 272t212 90q136 0 221.5 -92.5t85.5 -270.5q0 -195 -84.5 -282t-214.5 -87q-154 0 -231 99t-77 270v1zM228 354q0 -107 25 -172t78 -65q71 0 86.5 62t15.5 174q0 101 -20.5 161t-73.5 60h-2h-2h-2h-2q-55 1 -79 -64t-24 -157v1z" />
    <glyph glyph-name="one" unicode="1" horiz-adv-x="669" 
d="M126 583q13 2 27 6t27 10q40 16 78 39.5t68 49.5q1 1 2.5 2t2.5 2l165 1v-693h-197v504q-8 -7 -16.5 -12.5t-17.5 -11.5q-30 -20 -64 -37.5t-75 -26.5v167v0z" />
    <glyph glyph-name="two" unicode="2" horiz-adv-x="669" 
d="M31 0v126l32 26t33 26q22 18 44 35l44 34q51 40 98.5 81t87.5 88q18 23 27.5 46t9.5 43q1 26 -17 43.5t-59 17.5q-36 0 -57.5 -21t-21.5 -50l-205 1q6 100 83 152t201 52q157 0 216 -54.5t66 -119.5q0 -6 0.5 -11.5t0.5 -11.5q0 -41 -31.5 -90t-80.5 -99q-30 -30 -63 -60
t-67 -58q-23 -19 -45.5 -37t-43.5 -34l323 1v-126h-575v0z" />
    <glyph glyph-name="three" unicode="3" horiz-adv-x="669" 
d="M220 425q8 -1 16 -1h16q8 -1 16 -1h16q48 0 84.5 13t40.5 67v1.5v1.5v0.5v1.5q1 31 -25 47t-58 16h-3h-3q-30 -2 -55.5 -18.5t-28.5 -49.5l-197 1q0 88 75 146t217 58q136 0 209.5 -46t73.5 -135q0 -71 -46 -109t-101 -53q-5 -1 -9.5 -2t-8.5 -2q95 -12 138 -61t43 -120
q0 -88 -81.5 -142t-217.5 -54t-219 51t-88 169l196 1q3 -44 34.5 -65.5t68.5 -21.5q38 0 70 21.5t32 64.5q0 56 -46.5 70.5t-101.5 15.5h-18.5h-19.5h-9.5h-9.5v135v0z" />
    <glyph glyph-name="four" unicode="4" horiz-adv-x="669" 
d="M8 260l299 433h228v-425h111v-134h-111v-134h-196v134h-331v126v0zM189 268h157v244l-157 -244v0z" />
    <glyph glyph-name="five" unicode="5" horiz-adv-x="669" 
d="M55 283l16 410h504v-134h-331l-8 -173q14 36 48.5 58t73.5 30q11 3 22 4t22 1q104 -6 158 -71t61 -143q1 -5 1 -10.5v-11.5q0 -5 -0.5 -10.5t-1.5 -10.5q-10 -90 -69.5 -164t-204.5 -74q-130 0 -211.5 45t-87.5 175l189 1q12 -42 32 -65t55 -23h3h2q43 0 66 34.5t25 75.5
v3.5v2.5q0 41 -21.5 75.5t-66.5 36.5q-7 0 -15.5 -2.5t-17.5 -6.5q-15 -8 -28.5 -21.5t-17.5 -32.5l-197 1v0z" />
    <glyph glyph-name="six" unicode="6" horiz-adv-x="669" 
d="M409 520q-4 19 -25.5 33.5t-50.5 14.5q-4 0 -8.5 -0.5t-9.5 -1.5q-39 -4 -59.5 -42t-26.5 -83q-1 -9 -1.5 -18t-0.5 -18v-14t1 -14q24 53 73.5 70t107.5 17q19 0 44.5 -5t53.5 -17q49 -22 90 -70.5t41 -136.5q0 -118 -81.5 -184.5t-217.5 -66.5q-148 0 -225 92t-83 269
q0 14 0.5 28t2.5 29q11 112 78 206.5t219 99.5q114 0 174.5 -41t80.5 -91q6 -15 9 -29.5t3 -27.5l-189 1v0zM236 228q0 -48 25 -83.5t78 -35.5q65 0 87.5 35.5t22.5 82.5v1.5v1.5q-1 40 -23 74t-80 34t-84 -29t-26 -82v1z" />
    <glyph glyph-name="seven" unicode="7" horiz-adv-x="669" 
d="M55 693h559v-150l-268 -543h-189l268 543h-370v150v0z" />
    <glyph glyph-name="eight" unicode="8" horiz-adv-x="669" 
d="M205 370q-83 23 -116.5 64.5t-33.5 99.5q0 95 77 138.5t207 43.5q112 0 197.5 -39.5t85.5 -134.5q0 -70 -43 -112.5t-114 -60.5q83 -18 132 -58t49 -123q0 -106 -82.5 -155t-224.5 -49q-136 0 -223 46t-92 158q0 59 46.5 111t134.5 70v1zM236 205q0 -42 28 -69t75 -27
h1.5h1.5q37 1 68.5 25.5t31.5 65.5v6t-1 6q0 35 -27.5 64.5t-74.5 29.5q-53 0 -78 -27.5t-25 -74.5v1zM244 512q0 -36 29.5 -58t65.5 -22q35 0 64.5 22t29.5 57t-26.5 64.5t-67.5 29.5q-47 0 -71 -29.5t-24 -64.5v1z" />
    <glyph glyph-name="nine" unicode="9" horiz-adv-x="669" 
d="M39 181h189q6 -30 30 -47t65 -17q70 0 89.5 46.5t24.5 101.5q0 7 0.5 13.5t1.5 13.5q0 7 0.5 15t1.5 15q-28 -39 -74 -58.5t-96 -19.5h-8h-8q-84 5 -154 60.5t-70 159.5q0 142 94 197t206 55q165 -6 236 -99.5t71 -271.5q0 -183 -83.5 -276t-231.5 -93q-10 0 -19.5 0.5
t-19.5 0.5q-92 7 -168.5 52t-76.5 151v1zM433 472q0 58 -34.5 84t-75.5 26q-47 0 -75 -29t-28 -82q0 -4 0.5 -9t1.5 -9q5 -32 30 -58t71 -26q41 0 70.5 26t37.5 58q1 4 1.5 9t0.5 9v1z" />
    <glyph glyph-name="colon" unicode=":" 
d="M71 157h189v-157h-189v157v0zM71 520h189v-158h-189v158v0z" />
    <glyph glyph-name="semicolon" unicode=";" 
d="M102 150h197l-126 -276h-142l71 276v0zM87 512h189v-158h-189v158v0z" />
    <glyph glyph-name="less" unicode="&#x3c;" horiz-adv-x="661" 
d="M79 315l504 220v-133l-355 -142l355 -158v-133l-504 236v110v0z" />
    <glyph glyph-name="equal" unicode="=" horiz-adv-x="661" 
d="M583 220v-126h-504v126h504v0zM79 417h504v-126h-504v126v0z" />
    <glyph glyph-name="greater" unicode="&#x3e;" horiz-adv-x="661" 
d="M591 307v-110l-512 -221v134l354 142l-354 150v133l512 -228v0z" />
    <glyph glyph-name="question" unicode="?" horiz-adv-x="559" 
d="M142 150h189v-150h-189v150v0zM150 189v94q0 26 24.5 55t54.5 60q9 10 19 20t18 20q18 21 29.5 41t11.5 40q0 50 -39.5 67t-87.5 17q-28 0 -54 -3.5t-45 -7.5q-3 0 -5.5 -0.5t-4.5 -1.5v134q44 7 84 11t76 4q134 0 211.5 -49.5t77.5 -147.5q0 -59 -31 -97t-67 -66
q-18 -13 -34 -24.5t-30 -23.5q-16 -13 -25.5 -26.5t-9.5 -29.5v-86h-173v0z" />
    <glyph glyph-name="at" unicode="@" horiz-adv-x="740" 
d="M496 543h95l-48 -252v-2v-4q-1 -2 -1 -5v-6v-3.5v-2.5q1 -10 4.5 -17.5t12.5 -7.5q32 0 51 30.5t27 67.5q5 18 7 35.5t2 31.5q-6 113 -85.5 171t-174.5 58q-136 0 -206 -82.5t-70 -201.5q0 -136 83 -206.5t201 -76.5q53 0 100.5 14t88.5 49l102 1q-33 -58 -86.5 -93.5
t-111.5 -50.5q-26 -7 -51.5 -10.5t-49.5 -3.5q-162 0 -277.5 108.5t-115.5 262.5v6.5v7.5q7 142 75.5 220.5t148.5 112.5q47 21 91.5 29t77.5 8h10.5t11.5 -1q124 -7 228 -90.5t104 -207.5q0 -106 -46.5 -170t-101.5 -95q-31 -18 -61 -26t-51 -8q-29 0 -43 10.5t-14 24.5
q0 3 0.5 6t1.5 6q-23 -23 -48 -35t-54 -12q-72 0 -113 48.5t-50 106.5q-2 9 -2.5 17.5t-0.5 16.5q0 100 63 163.5t139 64.5h1.5h1.5q41 0 75 -19.5t51 -43.5l8 56v0zM457 346q1 2 1 5v6v1.5v1.5q-1 27 -22.5 49.5t-57.5 22.5q-32 0 -55.5 -20.5t-33.5 -45.5q-3 -7 -4.5 -14
t-1.5 -14q-1 -4 -1 -7.5v-7.5q0 -43 23.5 -57.5t56.5 -14.5q37 0 57 20.5t30 45.5q3 7 5 14t3 14v1z" />
    <glyph glyph-name="A" unicode="A" horiz-adv-x="835" 
d="M291 724h244l284 -724h-228l-48 134h-283l-47 -134h-213l291 724v0zM488 283l-86 292l-95 -292h181v0z" />
    <glyph glyph-name="B" unicode="B" horiz-adv-x="724" 
d="M63 724h323q18 -1 56 -3t79 -14q53 -15 97.5 -52t50.5 -113v-3.5t1 -3.5v-3.5v-3.5q0 -60 -43 -102.5t-115 -48.5q1 0 1.5 -0.5t1.5 -0.5q64 -18 117 -58t53 -122q0 -106 -75.5 -151t-223.5 -45h-323v724v0zM268 142h110q45 -1 66 16.5t26 38.5q1 4 1.5 7.5t0.5 7.5
q0 6 -1 12.5t-4 13.5q-7 19 -26.5 35.5t-54.5 16.5l-118 1v-149v0zM268 441h102q47 -1 67 17t20 53q0 29 -23 50t-64 21l-102 1v-142v0z" />
    <glyph glyph-name="C" unicode="C" horiz-adv-x="780" 
d="M535 496q0 40 -33.5 70.5t-92.5 30.5q-90 0 -114.5 -68t-26.5 -150v-16.5v-17.5q6 -100 35.5 -160t105.5 -60q65 0 95.5 34.5t30.5 75.5l213 1q0 -16 -2 -32t-7 -32q-19 -71 -92 -129.5t-222 -58.5q-201 0 -286.5 97t-91.5 257v10.5v9.5q-1 207 100 294t262 87
q184 0 261.5 -68.5t77.5 -175.5l-213 1v0z" />
    <glyph glyph-name="D" unicode="D" horiz-adv-x="835" 
d="M71 724h307q248 -1 332.5 -111t85.5 -255v-6.5v-7.5q-1 -4 -1 -7.5v-6.5q-6 -172 -110 -251t-228 -79h-386v724v0zM276 142h102q99 -1 148.5 58.5t55.5 131.5q1 5 1 10.5v10.5q0 9 -0.5 17.5t-2.5 17.5q-11 70 -63 128t-131 58l-110 1v-433v0z" />
    <glyph glyph-name="E" unicode="E" horiz-adv-x="669" 
d="M63 724h551v-149h-346v-142h323v-150h-323v-141h346v-142h-551v724v0z" />
    <glyph glyph-name="F" unicode="F" horiz-adv-x="614" 
d="M63 724h512v-149h-307v-166h283v-141h-283v-268h-205v724v0z" />
    <glyph glyph-name="G" unicode="G" horiz-adv-x="835" 
d="M559 504q-10 45 -42 66t-68 25q-6 1 -12 1.5t-12 0.5q-95 0 -132.5 -75t-40.5 -165v-9.5v-9.5q0 -95 54 -153.5t150 -59.5q23 0 49 4t54 12v119h-142v149h347v-385q-40 -12 -95.5 -20t-113.5 -14q-36 -3 -71 -4.5t-67 -1.5q-171 0 -278.5 99t-107.5 270q0 20 1.5 40.5
t5.5 40.5q18 114 106.5 209.5t288.5 95.5q130 0 221.5 -44t109.5 -192l-205 1v0z" />
    <glyph glyph-name="H" unicode="H" horiz-adv-x="780" 
d="M63 724h205v-291h244v291h205v-724h-205v291h-244v-291h-205v724v0z" />
    <glyph glyph-name="I" unicode="I" 
d="M63 724h205v-724h-205v724v0z" />
    <glyph glyph-name="J" unicode="J" horiz-adv-x="614" 
d="M339 724h204v-511q0 -101 -67.5 -161t-215.5 -60q-154 6 -204 62.5t-56 180.5l205 1v-10v-9q2 -32 14.5 -58t48.5 -26q29 0 44 19t21 42q4 14 5 27t1 22v481v0z" />
    <glyph glyph-name="K" unicode="K" horiz-adv-x="780" 
d="M71 724h205v-315l228 315h244l-252 -315l276 -409h-260l-236 386v-386h-205v724v0z" />
    <glyph glyph-name="L" unicode="L" horiz-adv-x="614" 
d="M63 724h205v-574h323v-150h-528v724v0z" />
    <glyph glyph-name="M" unicode="M" horiz-adv-x="1000" 
d="M63 724h323l110 -480l110 480h315v-724h-173v606l-165 -606h-189l-158 606v-606h-173v724v0z" />
    <glyph glyph-name="N" unicode="N" horiz-adv-x="835" 
d="M63 724h283l245 -535v535h181v-724h-284l-244 543v-543h-181v724v0z" />
    <glyph glyph-name="O" unicode="O" horiz-adv-x="835" 
d="M39 354q6 147 78 266t308 119h11.5h10.5q131 -5 239.5 -81t108.5 -297q0 -29 -3 -61t-11 -65q-24 -95 -100.5 -173t-247.5 -78q-227 0 -305 108t-88 239q0 5 -0.5 10.5t-0.5 11.5v1zM252 362q0 -89 42.5 -163t130.5 -74q77 0 117.5 59t40.5 177q0 95 -38.5 165.5
t-127.5 70.5q-88 0 -123.5 -73.5t-41.5 -162.5v1z" />
    <glyph glyph-name="P" unicode="P" horiz-adv-x="724" 
d="M71 724h354q148 -1 212 -58.5t64 -170.5q0 -117 -63.5 -168t-140.5 -63q-16 -3 -32 -4t-32 -1l-157 1v-260h-205v724v0zM276 583v-181h94q59 -1 88.5 25.5t29.5 67.5q0 47 -37.5 67t-96.5 20l-78 1v0z" />
    <glyph glyph-name="Q" unicode="Q" horiz-adv-x="835" 
d="M819 126v-126h-142q-50 0 -81.5 -2.5t-58.5 -5.5q-1 0 -3 -0.5t-4 -0.5q-24 -3 -51.5 -5t-69.5 -2q-165 0 -263.5 93t-98.5 276q0 148 81 263t281 115q207 0 296.5 -104t89.5 -258q0 -82 -35 -144.5t-106 -115.5q14 4 26.5 6.5t24.5 4.5q25 4 52 4.5t62 0.5v1zM583 362
q-6 88 -34.5 154t-123.5 66q-70 0 -117.5 -48t-47.5 -173q0 -106 37.5 -171t119.5 -65q89 0 127.5 68t38.5 168v1z" />
    <glyph glyph-name="R" unicode="R" horiz-adv-x="724" 
d="M55 724h323q5 -1 9.5 -1h9.5q102 -2 187 -39t85 -150q0 -88 -51 -128.5t-122 -52.5q107 -4 132.5 -72t33.5 -148v-4t1 -4q3 -33 7.5 -65.5t14.5 -59.5h-220q-8 18 -10.5 44t-4.5 54q0 6 -0.5 11.5t-0.5 11.5q-4 58 -20 106t-75 48l-94 1v-276h-205v724v0zM260 575v-158
h79q5 -1 9.5 -1h9.5q37 2 68 17t31 62q0 41 -32 60t-79 19l-86 1v0z" />
    <glyph glyph-name="S" unicode="S" horiz-adv-x="724" 
d="M39 236h205q0 -9 1 -18t4 -19q7 -25 30.5 -45.5t74.5 -20.5q54 0 82.5 20.5t29.5 47.5q0 4 -0.5 7.5t-1.5 7.5q-7 23 -36 43.5t-82 30.5q-2 0 -4 0.5t-4 1.5q-160 35 -218.5 80.5t-64.5 138.5v6v5q-1 107 89.5 162t217.5 55q177 -6 234.5 -69.5t57.5 -158.5l-205 1
q0 34 -24 56t-71 22q-42 0 -63.5 -19.5t-22.5 -43.5v-3.5v-3.5q3 -21 24.5 -40t61.5 -24q23 -4 47 -8.5t49 -10.5q85 -20 156 -64.5t71 -145.5q0 -130 -92.5 -186.5t-222.5 -56.5q-159 0 -238 63.5t-85 187.5v1z" />
    <glyph glyph-name="T" unicode="T" horiz-adv-x="669" 
d="M8 724h653v-149h-228v-575h-197v575h-228v149v0z" />
    <glyph glyph-name="U" unicode="U" horiz-adv-x="835" 
d="M71 724h205v-425q0 -77 32.5 -125.5t108.5 -48.5q89 0 119.5 49.5t30.5 131.5v418h205v-448q0 -131 -83 -215.5t-272 -84.5q-159 0 -252.5 83.5t-93.5 207.5v457v0z" />
    <glyph glyph-name="V" unicode="V" horiz-adv-x="780" 
d="M8 724h236l158 -527l173 527h212l-267 -724h-252l-260 724v0z" />
    <glyph glyph-name="W" unicode="W" horiz-adv-x="1000" 
d="M0 724h213l63 -519l118 519h244l102 -519l71 519h181l-118 -724h-244l-126 528l-134 -528h-244l-126 724v0z" />
    <glyph glyph-name="X" unicode="X" horiz-adv-x="835" 
d="M276 378l-252 346h259l142 -212l142 212h244l-268 -338l276 -386h-268l-149 260l-158 -260h-244l276 378v0z" />
    <glyph glyph-name="Y" unicode="Y" horiz-adv-x="780" 
d="M283 268l-283 456h244l158 -291l157 291h213l-284 -456v-268h-205v268v0z" />
    <glyph glyph-name="Z" unicode="Z" horiz-adv-x="669" 
d="M39 724h559v-189l-346 -385h394v-150h-622v142l378 433h-363v149v0z" />
    <glyph glyph-name="bracketleft" unicode="[" 
d="M47 732h268v-110h-110v-606h110v-110h-268v826v0z" />
    <glyph glyph-name="backslash" unicode="\" horiz-adv-x="276" 
d="M-110 724h157l347 -724h-158l-346 724v0z" />
    <glyph glyph-name="bracketright" unicode="]" 
d="M24 724h259v-826h-259v110h110v606h-110v110v0z" />
    <glyph glyph-name="asciicircum" unicode="^" horiz-adv-x="661" 
d="M268 693h126l189 -378l-111 -47l-141 267l-150 -267l-110 47l197 378v0z" />
    <glyph glyph-name="underscore" unicode="_" horiz-adv-x="504" 
d="M0 -63h496v-63h-496v63v0z" />
    <glyph glyph-name="grave" unicode="`" 
d="M-79 724h221l110 -149h-126l-205 149v0z" />
    <glyph glyph-name="a" unicode="a" horiz-adv-x="614" 
d="M370 63q-3 -7 -7 -13.5t-10 -12.5q-18 -20 -51 -36.5t-82 -16.5q-98 0 -139 36.5t-51 80.5q-4 14 -5 28t-1 27q5 107 110.5 140.5t235.5 33.5q0 41 -7 71.5t-48 30.5q-31 0 -44.5 -17t-16.5 -37q-1 -6 -1.5 -12.5t-0.5 -12.5l-189 1q0 88 73 126.5t179 38.5
q95 0 165.5 -35.5t70.5 -106.5v-259q0 -24 2 -54t14 -64h-189l-1 4l-3 12q-1 8 -2.5 19.5t-1.5 26.5v1zM370 236q-12 -1 -25.5 -1.5t-27.5 -2.5q-34 -4 -63.5 -15.5t-33.5 -36.5q0 -2 -0.5 -3.5t-0.5 -3.5q-1 -2 -1 -3.5v-3.5q0 -26 22 -48t50 -22q13 0 25.5 5t23.5 16
q15 16 21.5 35.5t8.5 39.5q1 11 1 22v21v1z" />
    <glyph glyph-name="b" unicode="b" horiz-adv-x="669" 
d="M252 724v-267q35 34 73.5 48t91.5 14q12 0 24 -1.5t24 -4.5q62 -15 113.5 -73.5t51.5 -172.5q0 -154 -69.5 -218.5t-158.5 -64.5q-58 0 -94 23.5t-54 51.5l-1.5 1.5t-0.5 1.5l-1 -19t-6 -41q0 -1 -0.5 -1.5l-0.5 -0.5h-189v724h197v0zM252 260q0 -13 0.5 -26t2.5 -27
q4 -40 22 -73t62 -33q53 0 69.5 46.5t16.5 111.5q0 59 -13.5 100.5t-72.5 41.5q-53 0 -70 -44.5t-17 -97.5v1z" />
    <glyph glyph-name="c" unicode="c" horiz-adv-x="614" 
d="M378 205h197q0 -113 -80.5 -167t-187.5 -54q-124 0 -182 51.5t-78 113.5q-10 30 -13 58.5t-3 51.5q6 124 82 192t194 68q19 0 40 -1.5t42 -4.5q70 -12 128 -54t58 -137l-197 1q0 40 -18 62.5t-53 22.5t-53 -41t-18 -100v-10v-10q1 -55 14.5 -100.5t56.5 -45.5q35 0 53 25
t18 78v1z" />
    <glyph glyph-name="d" unicode="d" horiz-adv-x="669" 
d="M409 724h197v-724h-189q-1 3 -2 7.5t-2 9.5q-3 20 -3.5 36.5l-0.5 16.5q-1 -6 -4.5 -12t-8.5 -12q-17 -21 -49.5 -38.5t-68.5 -22.5q-5 -1 -9.5 -1.5t-9.5 -0.5h-7.5t-7.5 1q-82 6 -147.5 63.5t-65.5 211.5q0 112 51 173.5t112 79.5q12 3 25 5t25 2q8 0 16 -0.5t16 -0.5
q40 -4 77 -20t56 -50v276v0zM417 260q0 52 -23.5 96.5t-70.5 44.5t-67 -41.5t-20 -100.5q0 -77 23 -117.5t64 -40.5q44 0 64 33t26 73q2 14 3 27t1 25v1z" />
    <glyph glyph-name="e" unicode="e" horiz-adv-x="614" 
d="M386 165h181q-12 -89 -79.5 -135t-180.5 -46q-142 0 -209 65.5t-67 201.5q0 124 72 196t196 72q160 0 218 -92.5t58 -222.5l-362 1q0 -10 0.5 -23t3.5 -27q6 -23 24 -42.5t58 -19.5q4 0 8 0.5t8 0.5q26 4 48.5 21.5t22.5 48.5v1zM386 315q0 46 -26 73.5t-61 27.5
t-60.5 -30.5t-25.5 -71.5l173 1v0z" />
    <glyph glyph-name="f" unicode="f" horiz-adv-x="441" 
d="M110 378h-94v126h94q0 70 18 129t77 83q20 6 40.5 9.5t41.5 4.5q7 1 14 1h14q30 0 58 -2.5t52 -5.5v-125q-18 7 -32.5 10.5t-25.5 3.5q-35 0 -46.5 -27t-12.5 -59q-1 -6 -1 -11.5v-11.5l110 1v-126h-110v-378h-197v378v0z" />
    <glyph glyph-name="g" unicode="g" horiz-adv-x="669" 
d="M425 94q-19 -35 -56 -53.5t-77 -23.5q-8 -1 -16 -1.5t-16 -0.5q-100 0 -164.5 73t-64.5 179t64.5 179t164.5 73q65 0 103.5 -20t61.5 -67q0 15 1.5 27.5t2.5 22.5q2 10 3 15.5l1 5.5l189 1v-449q0 -122 -66.5 -177.5t-145.5 -69.5q-17 -3 -34.5 -4.5t-33.5 -1.5h-9.5
h-8.5q-2 0 -4.5 0.5t-4.5 0.5q-21 0 -47 2.5t-53 8.5q-57 13 -104.5 49.5t-47.5 112.5h189q0 -23 15 -40t56 -23q77 0 89.5 48.5t12.5 113.5v9.5v8.5v1zM425 276v7.5t-1 8.5q-4 44 -27 80t-66 36q-8 0 -18 -2t-20 -8q-22 -12 -39.5 -42t-17.5 -89q0 -65 27 -99.5t68 -34.5
q53 0 73.5 38.5t20.5 103.5v1z" />
    <glyph glyph-name="h" unicode="h" horiz-adv-x="669" 
d="M63 724h197v-267q23 34 66.5 52t90.5 18q89 0 139 -48t50 -149v-330h-197v315q0 40 -18.5 63t-59.5 23t-56 -31t-15 -72v-298h-197v724v0z" />
    <glyph glyph-name="i" unicode="i" 
d="M71 512h197v-512h-197v512v0zM71 724h197v-126h-197v126v0z" />
    <glyph glyph-name="j" unicode="j" 
d="M63 512h197v-504q0 -80 -23.5 -140t-165.5 -61q-16 0 -33.5 1t-37.5 3v126q4 -1 7.5 -1h7.5q36 0 42 24t6 55v497v0zM63 724h197v-126h-197v126v0z" />
    <glyph glyph-name="k" unicode="k" horiz-adv-x="669" 
d="M63 724h197v-433l165 221h213l-173 -221l196 -291h-228l-173 268v-268h-197v724v0z" />
    <glyph glyph-name="l" unicode="l" 
d="M71 724h189v-724h-189v724v0z" />
    <glyph glyph-name="m" unicode="m" horiz-adv-x="1000" 
d="M47 512h197q0 -1 1.5 -7.5t2.5 -17.5q1 -6 2 -14t1 -15q1 -5 1 -9.5v-8.5l1.5 1.5t0.5 1.5q24 28 67.5 52t95.5 24q47 0 91.5 -18t74.5 -77q23 41 61 68t120 27q71 0 126 -41.5t55 -124.5v-353h-189v307q0 47 -22.5 69t-51.5 23h-2.5h-2.5q-30 -2 -54.5 -24.5
t-24.5 -60.5v-314h-189v299q0 51 -23.5 75.5t-52.5 25.5h-1.5h-1.5q-29 -1 -53.5 -25.5t-24.5 -68.5v-306h-197v417q0 17 -1 34t-3 31q-1 13 -2.5 21l-1.5 8v1z" />
    <glyph glyph-name="n" unicode="n" horiz-adv-x="669" 
d="M55 512h197q0 -1 1.5 -6.5t2.5 -14.5q1 -8 2.5 -18.5t1.5 -21.5v-1.5v-1.5q23 29 60 50t89 21q16 0 38 -2.5t44 -9.5q43 -13 79 -46.5t36 -99.5v-361h-189v307q0 48 -23.5 71t-52.5 24h-1.5h-1.5q-29 -1 -53.5 -24t-24.5 -64v-314h-197v402q0 20 -1 39.5t-3 35.5
q-1 15 -2.5 24.5l-1.5 9.5v1z" />
    <glyph glyph-name="o" unicode="o" horiz-adv-x="669" 
d="M39 260q6 100 66 179.5t226 79.5q130 0 214.5 -61t84.5 -191t-67 -193t-147 -80q-22 -5 -43.5 -7.5t-41.5 -2.5q-130 0 -211 75.5t-81 199.5v1zM425 260v7.5v9.5q-2 49 -21 90t-73 41q-47 0 -71 -38t-24 -103q0 -83 27 -124.5t68 -41.5q44 0 64 33t26 73q2 14 3 27t1 25
v1z" />
    <glyph glyph-name="p" unicode="p" horiz-adv-x="669" 
d="M47 504h197v-71q29 46 67 66t91 20q93 0 144 -58.5t67 -128.5q5 -19 7 -37.5t2 -35.5q0 -112 -51 -193.5t-169 -81.5q-65 0 -99.5 16.5t-58.5 45.5v-243h-197v701v0zM417 260q0 88 -25.5 114.5t-60.5 26.5q-36 0 -61.5 -35.5t-25.5 -106.5q0 -11 0.5 -22t1.5 -23
q5 -45 23.5 -83t61.5 -38q47 0 66.5 44.5t19.5 121.5v1z" />
    <glyph glyph-name="q" unicode="q" horiz-adv-x="669" 
d="M606 504v-701h-189v260q-2 -5 -5 -9.5t-7 -8.5q-20 -24 -55 -43t-80 -19h-8.5t-9.5 1q-112 6 -166.5 80.5t-54.5 186.5q0 19 2.5 40t8.5 42q18 70 68.5 128t141.5 58q9 0 19 -0.5t20 -2.5q40 -6 74.5 -26t43.5 -58q0 12 1.5 21t2.5 18q0 2 0.5 4.5t1.5 4.5q1 6 1.5 11.5
t0.5 11.5l189 1v0zM236 260q0 -83 23 -121t64 -38q50 0 69.5 39t23.5 85q0 9 0.5 17.5t0.5 16.5q0 65 -21.5 101t-47.5 45q-4 2 -8.5 2.5t-8.5 0.5q-36 0 -65.5 -30t-29.5 -119v1z" />
    <glyph glyph-name="r" unicode="r" horiz-adv-x="441" 
d="M55 504h197q0 -1 1.5 -8t2.5 -18q2 -12 3 -28t1 -34q17 59 62.5 81t110.5 22v-165q-10 1 -20 1.5t-20 0.5q-56 1 -94.5 -29.5t-38.5 -91.5v-235h-197v386v40t-1 18t-2.5 18t-4.5 41v1z" />
    <glyph glyph-name="s" unicode="s" horiz-adv-x="559" 
d="M39 165h181q0 -5 0.5 -9.5t1.5 -9.5q6 -20 21.5 -36.5t39.5 -16.5q23 0 40.5 13.5t17.5 31.5v4t-1 4q-3 14 -20 27t-52 23q-83 17 -153 50t-76 115q0 8 1 16.5t4 17.5q13 46 67.5 85t164.5 39t159 -30.5t65 -67.5q8 -19 10 -36.5t2 -31.5l-181 1q0 23 -16 38.5t-39 15.5
q-19 0 -34.5 -10.5t-15.5 -24.5v-3v-3q2 -11 15.5 -20.5t41.5 -16.5q11 -3 22.5 -5.5t22.5 -5.5q81 -20 140.5 -51t59.5 -119q0 -89 -68 -127t-192 -38q-142 0 -185.5 52t-43.5 128v1z" />
    <glyph glyph-name="t" unicode="t" horiz-adv-x="441" 
d="M110 583l197 71v-150h110v-118h-110v-213q0 -42 14 -55.5t40 -13.5q9 0 19 1t21 2q4 1 8 1.5t8 0.5v-117q-33 -5 -65 -8t-62 -3q-76 0 -128 28t-52 108v269h-94v118h94v79v0z" />
    <glyph glyph-name="u" unicode="u" horiz-adv-x="669" 
d="M63 504h197v-291v-9t1 -8q2 -33 16.5 -60t45.5 -27q53 0 69.5 35.5t16.5 82.5v277h189v-386q0 -11 0.5 -23.5t1.5 -25.5q1 -7 1.5 -13.5t0.5 -12.5q2 -18 3 -30.5l1 -12.5h-189l-1 3.5t-3 11.5q-1 7 -2.5 17t-1.5 22q-23 -29 -56.5 -49.5t-92.5 -20.5q-106 0 -151.5 56
t-45.5 132v332v0z" />
    <glyph glyph-name="v" unicode="v" horiz-adv-x="614" 
d="M8 504h212l95 -347l102 347h181l-189 -504h-204l-197 504v0z" />
    <glyph glyph-name="w" unicode="w" horiz-adv-x="945" 
d="M8 504h197l78 -347l103 347h205l78 -354l95 354h173l-165 -504h-213l-87 339l-94 -339h-213l-157 504v0z" />
    <glyph glyph-name="x" unicode="x" horiz-adv-x="614" 
d="M181 268l-142 236h221l63 -142l63 142h205l-158 -236l173 -268h-236l-71 181l-79 -181h-204l165 268v0z" />
    <glyph glyph-name="y" unicode="y" horiz-adv-x="614" 
d="M0 504h213l94 -339l110 339h181l-275 -693h-181l71 181l-213 512v0z" />
    <glyph glyph-name="z" unicode="z" horiz-adv-x="559" 
d="M55 378v126h457v-126l-260 -252h268v-126h-473v126l260 252h-252v0z" />
    <glyph glyph-name="braceleft" unicode="{" 
d="M0 370q59 -1 80.5 13t21.5 73v127q0 79 47 111.5t126 32.5q15 0 31 -1t33 -3v-93q-4 -1 -8 -1h-8q-26 -1 -48.5 -8.5t-22.5 -38.5v-196q0 -42 -24.5 -57t-54.5 -15q30 -6 54.5 -20t24.5 -67v-156q0 -38 18 -59t52 -21h8.5t8.5 1v-79q-19 -4 -37.5 -6t-37.5 -2
q-64 0 -113 28.5t-49 96.5v167q0 40 -27.5 55t-74.5 15v103v0z" />
    <glyph glyph-name="bar" unicode="|" horiz-adv-x="276" 
d="M71 724h134v-724h-134v724v0z" />
    <glyph glyph-name="braceright" unicode="}" 
d="M331 354v-94q-59 -1 -77 -17t-18 -63v-133q0 -72 -45 -108t-134 -36q-13 0 -27.5 0.5t-29.5 2.5v94q59 0 73 20t14 50v143q0 52 22.5 69.5t63.5 23.5q-41 6 -63.5 31.5t-22.5 55.5v150q0 58 -17 72t-70 14v95q5 -1 10 -0.5t10 0.5h10h10q77 1 136.5 -27t59.5 -107v-149
q0 -54 18 -71t77 -17v1z" />
    <glyph glyph-name="asciitilde" unicode="~" horiz-adv-x="661" 
d="M71 220q23 46 66.5 85.5t90.5 39.5q24 0 47.5 -10t48.5 -21q24 -12 49 -22t52 -10q18 0 30 6.5t24 18.5q7 9 15 20.5t18 25.5l71 -77q-2 -5 -4.5 -9.5t-5.5 -8.5q-24 -38 -56.5 -70t-75.5 -32h-2.5h-2.5h-2.5h-2.5q-13 0 -26.5 2.5t-26.5 6.5q-14 5 -27.5 10.5
t-26.5 11.5q-26 12 -48.5 22t-39.5 10q-24 0 -39 -8t-28 -24q-6 -7 -12.5 -17t-14.5 -21l-71 71v0z" />
    <glyph glyph-name="glyph98" unicode="&#xa1;" horiz-adv-x="441" 
d="M110 -181l32 512h157l32 -512h-221v0zM126 394v149h189v-149h-189v0z" />
    <glyph glyph-name="cent" unicode="&#xa2;" horiz-adv-x="669" 
d="M402 323q0 33 -19 47t-41 15h-1.5h-1.5q-32 0 -49.5 -25.5t-23.5 -56.5q-3 -14 -4.5 -27.5t-1.5 -24.5t1 -24.5t3 -27.5q5 -31 22 -56.5t53 -25.5q29 0 47 18t23 53l197 1q-6 -91 -68 -148t-171 -58h-5.5h-4.5q-3 1 -5.5 1h-5.5l-47 -149h-142l48 173q-77 34 -109.5 99.5
t-32.5 159.5q0 101 63 173.5t205 78.5l31 127h150l-40 -150q53 -19 93.5 -64t40.5 -110l-204 1v0z" />
    <glyph glyph-name="sterling" unicode="&#xa3;" horiz-adv-x="669" 
d="M110 134v157h-102v134h102q0 118 56 200.5t204 82.5q150 0 209.5 -56.5t70.5 -123.5q2 -13 3 -25t1 -24l-197 1q0 35 -19 64.5t-60 29.5q-53 0 -62 -45.5t-9 -104.5l142 1v-134h-142v-157h307v-134h-583v134h79v0z" />
    <glyph glyph-name="Idieresis" unicode="&#xa4;" horiz-adv-x="661" 
d="M71 488l86 79l48 -47q29 19 62 29.5t67 10.5q35 0 68 -10t63 -31l47 48l86 -79l-47 -47q18 -32 28 -64t10 -66q0 -31 -9 -63.5t-29 -67.5l47 -46l-86 -79l-47 47q-16 -11 -32.5 -18.5t-32.5 -13.5q-16 -5 -32.5 -7.5t-32.5 -2.5t-32.5 2.5t-32.5 7.5t-32.5 13t-32.5 18
l-48 -46l-86 79l47 47q-18 27 -28 61t-10 70q0 34 9 67t29 61l-47 48v0zM220 307q0 -48 33 -79.5t86 -31.5q47 0 78.5 32.5t31.5 85.5q0 47 -31.5 78.5t-78.5 31.5h-4t-3 1h-3.5h-3.5q-52 0 -78.5 -34.5t-26.5 -84.5v1z" />
    <glyph glyph-name="ae" unicode="&#xa5;" horiz-adv-x="669" 
d="M142 441l-134 260h205l118 -268l126 268h204l-133 -260h86v-134h-149l-24 -47h173v-134h-189v-126h-189v126h-181v134h173l-23 47h-150v134h87v0z" />
    <glyph glyph-name="brokenbar" unicode="&#xa6;" 
 />
    <glyph glyph-name="section" unicode="&#xa7;" horiz-adv-x="669" 
d="M189 496q-27 14 -42.5 28.5t-23.5 29.5t-10.5 29.5t-2.5 29.5q0 65 63 95t139 31h1.5h1.5q59 0 103.5 -5t85.5 -11v-117q-42 12 -74.5 17.5t-56.5 5.5q-34 0 -50.5 -8.5t-16.5 -20.5v-4t1 -4q3 -9 15 -18t32 -16q17 -5 36 -10.5t38 -12.5q55 -19 101 -54t46 -96
q0 -47 -27 -80t-68 -62q36 -18 57.5 -47.5t21.5 -70.5q0 -72 -64.5 -104.5t-142.5 -36.5h-10.5h-10.5q-30 0 -77.5 2t-98.5 12q-9 2 -18.5 4t-18.5 5v119q14 -6 30.5 -10t32.5 -7q24 -4 46.5 -6t40.5 -2q59 0 84.5 21.5t-17.5 46.5q-8 5 -19 9.5t-25 9.5q-82 23 -143 56
t-61 109q0 45 20 72.5t55 52.5q6 4 13 8.5t14 8.5v1zM299 449q-6 -7 -11.5 -13t-9.5 -11q-8 -10 -13 -21.5t-5 -26.5q0 -24 21 -42.5t46 -30.5q12 -5 23 -8.5t20 -5.5q12 18 22 37t10 42q0 21 -26 40t-57 32q-5 2 -10 3.5t-10 3.5v1z" />
    <glyph glyph-name="dieresis" unicode="&#xa8;" 
d="M-55 732h173v-149h-173v149v0zM205 732h173v-149h-173v149v0z" />
    <glyph glyph-name="copyright" unicode="&#xa9;" horiz-adv-x="803" 
d="M16 378q6 164 125 266.5t261 102.5h11.5t10.5 -1q134 -8 245 -109t111 -256v-6v-6q-6 -165 -102.5 -272t-268.5 -113h-7.5h-7.5q-165 0 -271.5 113t-106.5 280v1zM126 378q0 -125 70 -205t206 -80t201.5 78t65.5 190q0 113 -68.5 194.5t-198.5 81.5t-203 -73.5
t-73 -186.5v1zM504 441q-6 28 -29.5 49t-65.5 21q-47 0 -74.5 -44.5t-27.5 -97.5q0 -65 27.5 -103.5t74.5 -38.5q42 0 68.5 18t26.5 53l87 1q-5 -76 -51.5 -110t-100.5 -39q-6 0 -11.5 -0.5t-10.5 -0.5q-16 0 -33 2.5t-34 7.5q-54 17 -99.5 66.5t-45.5 143.5q0 88 38.5 136
t84.5 67q22 10 43 14t38 4q65 0 120.5 -36.5t61.5 -113.5l-87 1v0z" />
    <glyph glyph-name="ellipsis" unicode="&#xaa;" horiz-adv-x="370" 
d="M-8 394h378v-87h-378v87v0zM31 646q6 40 45 70.5t121 30.5q13 0 29 -2t32 -7q36 -10 66 -35.5t30 -73.5q0 -93 1 -133.5t7 -70.5v-0.5v-0.5l-134 1l-8 32q-10 -20 -36.5 -29t-57.5 -9q-19 -1 -37 2.5t-34 10.5q-1 0 -1.5 0.5t-1.5 0.5q-18 9 -33 33t-15 52q0 17 6 33
t21 31l0.5 0.5l1.5 1.5q29 28 67.5 40.5t119.5 12.5q0 17 -9.5 24t-21.5 7q-5 0 -14.5 -2t-19.5 -14q-1 -2 -2.5 -3.5t-2.5 -3.5l-119 1v0zM220 559h-9.5h-9.5q-30 0 -47.5 -11t-19.5 -24q-1 -1 -1 -2.5v-2.5v-2v-2t0.5 -2t0.5 -2q3 -7 14.5 -13t24.5 -6h1.5h1.5q16 1 30 13
t15 41v3.5v2.5q-1 2 -1 3.5v2.5v1z" />
    <glyph glyph-name="ydieresis" unicode="&#xab;" horiz-adv-x="669" 
d="M55 268l126 197h165l-126 -197l126 -197h-165l-126 197v0zM323 268l126 197h165l-126 -197l126 -197h-165l-126 197v0z" />
    <glyph glyph-name="emdash" unicode="&#xac;" 
 />
    <glyph glyph-name="uni00AD" unicode="&#xad;" horiz-adv-x="500" 
 />
    <glyph glyph-name="registered" unicode="&#xae;" horiz-adv-x="803" 
d="M24 378q5 164 117.5 266.5t260.5 102.5q144 0 261 -109.5t117 -264.5v-6v-6q-6 -154 -102.5 -262.5t-268.5 -114.5h-7.5h-7.5q-165 0 -267.5 113t-102.5 280v1zM126 378q0 -137 73 -214.5t203 -77.5q136 5 205.5 85t69.5 198q0 136 -84.5 202t-190.5 66q-136 0 -203 -71
t-73 -189v1zM244 567h189q65 -1 115 -17.5t50 -93.5q0 -59 -19.5 -89.5t-90.5 -36.5l95 -165h-103l-94 166h-47v-166h-95v402v0zM339 496v-94h94q41 -1 56 10.5t15 35.5q0 23 -15 35t-56 12l-94 1v0z" />
    <glyph glyph-name="glyph263" unicode="&#xaf;" 
 />
    <glyph glyph-name="glyph264" unicode="&#xb0;" 
 />
    <glyph glyph-name="mu" unicode="&#xb1;" horiz-adv-x="661" 
 />
    <glyph glyph-name="uni00B2" unicode="&#xb2;" 
 />
    <glyph glyph-name="uni00B3" unicode="&#xb3;" 
 />
    <glyph glyph-name="acute" unicode="&#xb4;" 
d="M79 575l110 149h220l-196 -149h-134v0z" />
    <glyph glyph-name="oslash" unicode="&#xb5;" horiz-adv-x="669" 
 />
    <glyph glyph-name="paragraph" unicode="&#xb6;" horiz-adv-x="850" 
d="M496 551h-71v-716h-181v543q-8 -1 -16.5 -0.5t-17.5 1.5q-58 7 -106.5 44t-48.5 119q0 89 53.5 135t159.5 46l449 1v-173h-48v-716h-173v716v0z" />
    <glyph glyph-name="glyph265" unicode="&#xb7;" 
 />
    <glyph glyph-name="glyph121" unicode="&#xb8;" 
d="M189 16l-47 -63q3 0 6 0.5t6 0.5t6 0.5t6 0.5h4h4q41 -2 75 -20.5t34 -52.5q0 -39 -27.5 -58.5t-60.5 -27.5q-23 -6 -44 -7.5t-33 -1.5t-25 0.5t-27 2.5q-26 2 -49.5 7.5t-39.5 13.5l23 55q35 -11 61 -16t45 -5q31 0 45 9t14 20q0 13 -12.5 21.5t-39.5 8.5
q-10 0 -22.5 -1.5t-27.5 -4.5l-24 23l63 95h87v0z" />
    <glyph glyph-name="uni00B9" unicode="&#xb9;" 
 />
    <glyph glyph-name="Agrave" unicode="&#xba;" horiz-adv-x="402" 
d="M8 394h386v-87h-386v87v0zM8 583q6 82 60 119t137 37t136 -43t53 -114q0 -76 -47.5 -115t-104.5 -48q-9 -2 -18.5 -2.5t-18.5 -0.5q-77 0 -137 41.5t-60 124.5v1zM142 575q0 -42 16.5 -61t46.5 -19q29 0 42 22t13 57q0 41 -16 63.5t-39 22.5q-30 0 -46.5 -22.5
t-16.5 -63.5v1z" />
    <glyph glyph-name="Ydieresis" unicode="&#xbb;" horiz-adv-x="669" 
d="M339 260l-126 -197h-158l118 197l-118 197h158l126 -197v0zM606 260l-126 -197h-157l118 197l-118 197h157l126 -197v0z" />
    <glyph glyph-name="onequarter" unicode="&#xbc;" 
 />
    <glyph glyph-name="glyph243" unicode="&#xbd;" horiz-adv-x="1000" 
 />
    <glyph glyph-name="threequarters" unicode="&#xbe;" 
 />
    <glyph glyph-name="oe" unicode="&#xbf;" horiz-adv-x="559" 
d="M402 346v-102q0 -27 -23.5 -54.5t-51.5 -55.5q-28 -29 -51.5 -59t-23.5 -61v-3.5v-3.5v-4.5t1 -4.5q4 -25 34 -45.5t91 -20.5q22 0 47 3t55 10v-142q-29 -5 -65.5 -8t-74.5 -3q-11 0 -21.5 0.5t-21.5 0.5q-98 6 -180 48t-86 151q0 52 32 88.5t71 65.5q14 10 27.5 20
t25.5 20q21 17 35 34.5t14 38.5v87h166v0zM220 535h189v-149h-189v149v0z" />
    <glyph glyph-name="currency" unicode="&#xc0;" horiz-adv-x="835" 
d="M291 724h244l284 -724h-228l-48 134h-283l-47 -134h-213l291 724v0zM488 283l-86 292l-95 -292h181v0zM173 953h221l110 -150h-126l-205 150v0z" />
    <glyph glyph-name="breve" unicode="&#xc1;" horiz-adv-x="835" 
d="M291 724h244l284 -724h-228l-48 134h-283l-47 -134h-213l291 724v0zM488 283l-86 292l-95 -292h181v0zM331 803l110 150h220l-196 -150h-134v0z" />
    <glyph glyph-name="tilde" unicode="&#xc2;" horiz-adv-x="835" 
d="M291 724h244l284 -724h-228l-48 134h-283l-47 -134h-213l291 724v0zM488 283l-86 292l-95 -292h181v0zM323 953h173l118 -150h-134l-71 79l-70 -79h-134l118 150v0z" />
    <glyph glyph-name="guilsinglleft" unicode="&#xc3;" horiz-adv-x="835" 
d="M291 724h244l284 -724h-228l-48 134h-283l-47 -134h-213l291 724v0zM488 283l-86 292l-95 -292h181v0zM197 787q12 58 47.5 103.5t94.5 45.5q29 0 55.5 -6t49.5 -13q23 -8 42 -14t34 -6q18 0 24.5 8.5t9.5 18.5l0.5 0.5t0.5 1.5q1 2 2 5t2 5l87 1q-5 -64 -41.5 -102.5
t-79.5 -46.5q-5 -1 -10.5 -1.5t-10.5 -0.5q-16 0 -34.5 4t-36.5 10q-5 2 -9.5 3.5t-8.5 2.5q-23 8 -44.5 14t-39.5 6q-24 0 -33 -11t-15 -29l-86 1v0z" />
    <glyph glyph-name="Adieresis" unicode="&#xc4;" horiz-adv-x="835" 
d="M291 724h244l284 -724h-228l-48 134h-283l-47 -134h-213l291 724v0zM488 283l-86 292l-95 -292h181v0zM197 937h173v-150h-173v150v0zM457 937h173v-150h-173v150v0z" />
    <glyph glyph-name="Aring" unicode="&#xc5;" horiz-adv-x="835" 
d="M291 724h244l284 -724h-228l-48 134h-283l-47 -134h-213l291 724v0zM488 283l-86 292l-95 -292h181v0zM299 866q0 46 31.5 77.5t78.5 31.5q53 0 86 -31.5t33 -78.5q0 -43 -32 -72.5t-70 -36.5q-4 0 -8.5 -0.5t-8.5 -0.5q-47 0 -78.5 34.5t-31.5 75.5v1zM457 866
q0 23 -15 34.5t-33 11.5h-1.5h-1.5q-16 -1 -30 -15.5t-14 -31.5v-1.5v-1.5q1 -16 13 -30t34 -14q17 0 32 14t16 30v1.5v1.5v1z" />
    <glyph glyph-name="Oslash" unicode="&#xc6;" horiz-adv-x="1000" 
d="M323 724h630v-149h-315l16 -142h275v-150h-260l16 -141h268v-142h-457l-16 134h-220l-47 -134h-213l323 724v0zM465 283l-32 300l-126 -300h158v0z" />
    <glyph glyph-name="Ccedilla" unicode="&#xc7;" horiz-adv-x="780" 
d="M535 504q0 40 -33.5 70.5t-92.5 30.5q-82 0 -109 -60t-31 -132q0 -15 -0.5 -30t-0.5 -30q-1 -7 -1 -14.5v-14.5q0 -92 35.5 -141.5t106.5 -49.5q65 0 95.5 34.5t30.5 75.5l213 1v-4.5v-3.5v-3.5v-3.5q1 -100 -76 -169t-227 -69h-21t-22 1l-32 -39q6 1 12 1h12
q50 0 84 -20.5t34 -51.5q0 -49 -45.5 -70.5t-100.5 -23.5q-5 -1 -10 -1h-10q-12 0 -24.5 0.5t-26.5 2.5q-26 2 -50 7.5t-40 13.5l23 55q31 -10 58 -15t48 -5q28 0 44 7t16 21q0 13 -13 21.5t-40 8.5q-10 0 -22.5 -1.5t-27.5 -4.5l-23 23l55 79q-118 11 -194 98.5t-82 246.5
v10.5v9.5q-1 208 100 295t262 87q184 0 261.5 -68.5t77.5 -175.5l-213 1v0z" />
    <glyph glyph-name="ring" unicode="&#xc8;" horiz-adv-x="669" 
d="M63 724h551v-149h-346v-142h323v-150h-323v-141h346v-142h-551v724v0zM94 937h221l110 -150h-126l-205 150v0z" />
    <glyph glyph-name="Eacute" unicode="&#xc9;" horiz-adv-x="669" 
d="M63 724h551v-149h-346v-142h323v-150h-323v-141h346v-142h-551v724v0zM244 787l110 150h221l-197 -150h-134v0z" />
    <glyph glyph-name="macron" unicode="&#xca;" horiz-adv-x="669" 
d="M63 724h551v-149h-346v-142h323v-150h-323v-141h346v-142h-551v724v0zM236 937h173l119 -150h-134l-71 79l-71 -79h-134l118 150v0z" />
    <glyph glyph-name="dotaccent" unicode="&#xcb;" horiz-adv-x="669" 
d="M63 724h551v-149h-346v-142h323v-150h-323v-141h346v-142h-551v724v0zM150 1016h173v-150h-173v150v0zM409 1016h174v-150h-174v150v0z" />
    <glyph glyph-name="caron" unicode="&#xcc;" 
d="M63 724h205v-724h-205v724v0zM-79 945h221l110 -150h-126l-205 150v0z" />
    <glyph glyph-name="cedilla" unicode="&#xcd;" 
d="M63 724h205v-724h-205v724v0zM71 795l110 150h221l-197 -150h-134v0z" />
    <glyph glyph-name="hungarumlaut" unicode="&#xce;" 
d="M63 724h205v-724h-205v724v0zM79 945h173l118 -150h-134l-71 79l-71 -79h-133l118 150v0z" />
    <glyph glyph-name="ogonek" unicode="&#xcf;" 
d="M63 724h205v-724h-205v724v0zM-47 945h173v-150h-173v150v0zM213 945h173v-150h-173v150v0z" />
    <glyph glyph-name="glyph232" unicode="&#xd0;" horiz-adv-x="835" 
 />
    <glyph glyph-name="Ntilde" unicode="&#xd1;" horiz-adv-x="835" 
d="M63 724h283l245 -535v535h181v-724h-284l-244 543v-543h-181v724v0zM213 787q11 58 47 103.5t94 45.5q30 0 56.5 -6t49.5 -13q22 -8 41 -14t34 -6q18 0 24.5 8.5t10.5 18.5l0.5 0.5t0.5 1.5q1 2 2 5t2 5l86 1q-5 -64 -41 -102.5t-79 -46.5q-5 -1 -10.5 -1.5t-10.5 -0.5
q-17 0 -35.5 4.5t-37.5 10.5q-4 1 -8.5 2.5t-8.5 2.5q-23 8 -44.5 14t-39.5 6q-23 0 -32 -11t-15 -29l-86 1v0z" />
    <glyph glyph-name="scaron" unicode="&#xd2;" 
 />
    <glyph glyph-name="Lslash" unicode="&#xd3;" horiz-adv-x="835" 
d="M39 354q6 147 78 266t308 119h11.5h10.5q131 -5 239.5 -81t108.5 -297q0 -29 -3 -61t-11 -65q-24 -95 -100.5 -173t-247.5 -78q-227 0 -305 108t-88 239q0 5 -0.5 10.5t-0.5 11.5v1zM252 362q0 -89 42.5 -163t130.5 -74q77 0 117.5 59t40.5 177q0 95 -38.5 165.5
t-127.5 70.5q-88 0 -123.5 -73.5t-41.5 -162.5v1zM346 787l111 150h220l-197 -150h-134v0z" />
    <glyph glyph-name="lslash" unicode="&#xd4;" horiz-adv-x="835" 
d="M39 354q6 147 78 266t308 119h11.5h10.5q131 -5 239.5 -81t108.5 -297q0 -29 -3 -61t-11 -65q-24 -95 -100.5 -173t-247.5 -78q-227 0 -305 108t-88 239q0 5 -0.5 10.5t-0.5 11.5v1zM252 362q0 -89 42.5 -163t130.5 -74q77 0 117.5 59t40.5 177q0 95 -38.5 165.5
t-127.5 70.5q-88 0 -123.5 -73.5t-41.5 -162.5v1zM331 945h173l118 -150h-134l-71 79l-71 -79h-133l118 150v0z" />
    <glyph glyph-name="guilsinglright" unicode="&#xd5;" horiz-adv-x="835" 
d="M39 354q6 147 78 266t308 119h11.5h10.5q131 -5 239.5 -81t108.5 -297q0 -29 -3 -61t-11 -65q-24 -95 -100.5 -173t-247.5 -78q-227 0 -305 108t-88 239q0 5 -0.5 10.5t-0.5 11.5v1zM252 362q0 -89 42.5 -163t130.5 -74q77 0 117.5 59t40.5 177q0 95 -38.5 165.5
t-127.5 70.5q-88 0 -123.5 -73.5t-41.5 -162.5v1zM205 795q11 58 47 103.5t94 45.5q30 0 56.5 -6t49.5 -13q23 -8 42 -14t34 -6q18 0 24.5 8.5t9.5 18.5l0.5 0.5t0.5 1.5q1 2 2 5t2 5l87 1q-5 -64 -41.5 -102.5t-79.5 -46.5q-5 -1 -10.5 -1.5t-10.5 -0.5q-16 0 -34.5 4
t-36.5 10q-5 2 -9.5 3.5t-8.5 2.5q-23 8 -44.5 14t-39.5 6q-24 0 -33 -11t-15 -29l-86 1v0z" />
    <glyph glyph-name="Odieresis" unicode="&#xd6;" horiz-adv-x="835" 
d="M39 354q6 147 78 266t308 119h11.5h10.5q131 -5 239.5 -81t108.5 -297q0 -29 -3 -61t-11 -65q-24 -95 -100.5 -173t-247.5 -78q-227 0 -305 108t-88 239q0 5 -0.5 10.5t-0.5 11.5v1zM252 362q0 -89 42.5 -163t130.5 -74q77 0 117.5 59t40.5 177q0 95 -38.5 165.5
t-127.5 70.5q-88 0 -123.5 -73.5t-41.5 -162.5v1zM205 945h173v-150h-173v150v0zM465 945h173v-150h-173v150v0z" />
    <glyph glyph-name="multiply" unicode="&#xd7;" 
 />
    <glyph glyph-name="plusminus" unicode="&#xd8;" horiz-adv-x="835" 
d="M39 354q6 147 84 270t302 123q16 0 32 -1.5t33 -3.5q51 -8 99.5 -27.5t79.5 -46.5l95 96l71 -71l-95 -95q20 -27 31 -61t17 -70q4 -28 5.5 -55t1.5 -51q0 -29 -3.5 -61t-12.5 -65q-25 -95 -104 -173t-250 -78q-18 0 -38 1.5t-40 4.5q-46 8 -88 22t-62 34l-103 -101
l-70 71l94 94q-30 29 -51 85.5t-26 118.5q-1 9 -1.5 19t-0.5 20v1zM323 173q12 -18 36.5 -29t65.5 -11q61 0 108.5 50t47.5 160q0 19 -1.5 39t-4.5 42l-252 -251v0zM276 260l259 275q-11 29 -44 45.5t-74 16.5q-64 0 -111 -55.5t-47 -157.5q-1 -28 3.5 -59t13.5 -66v1z" />
    <glyph glyph-name="Thorn" unicode="&#xd9;" horiz-adv-x="835" 
d="M71 724h205v-417q0 -77 32.5 -125.5t108.5 -48.5q89 0 119.5 49.5t30.5 131.5v410h205v-441q0 -131 -83 -215t-272 -84q-159 0 -252.5 83.5t-93.5 207.5v449v0zM181 953h221l110 -150h-126l-205 150v0z" />
    <glyph glyph-name="Eth" unicode="&#xda;" horiz-adv-x="835" 
d="M71 724h205v-417q0 -77 32.5 -125.5t108.5 -48.5q89 0 119.5 49.5t30.5 131.5v410h205v-441q0 -131 -83 -215t-272 -84q-159 0 -252.5 83.5t-93.5 207.5v449v0zM331 803l110 150h220l-196 -150h-134v0z" />
    <glyph glyph-name="eth" unicode="&#xdb;" horiz-adv-x="835" 
d="M71 724h205v-417q0 -77 32.5 -125.5t108.5 -48.5q89 0 119.5 49.5t30.5 131.5v410h205v-441q0 -131 -83 -215t-272 -84q-159 0 -252.5 83.5t-93.5 207.5v449v0zM346 953h174l118 -150h-134l-71 79l-71 -79h-134l118 150v0z" />
    <glyph glyph-name="Udieresis" unicode="&#xdc;" horiz-adv-x="835" 
d="M71 724h205v-417q0 -77 32.5 -125.5t108.5 -48.5q89 0 119.5 49.5t30.5 131.5v410h205v-441q0 -131 -83 -215t-272 -84q-159 0 -252.5 83.5t-93.5 207.5v449v0zM205 953h173v-150h-173v150v0zM465 953h173v-150h-173v150v0z" />
    <glyph glyph-name="Yacute" unicode="&#xdd;" 
 />
    <glyph glyph-name="glyph236" unicode="&#xde;" horiz-adv-x="724" 
 />
    <glyph glyph-name="germandbls" unicode="&#xdf;" horiz-adv-x="780" 
d="M71 0v520q0 111 74.5 165t216.5 54q119 0 201.5 -32t82.5 -133q0 -33 -17.5 -55t-37.5 -39q-10 -7 -18.5 -14t-16.5 -13q-9 -9 -15 -18t-6 -19v-0.5v-1.5v-1.5v-0.5q0 -28 20 -45t48 -31q9 -5 19 -10t19 -10q40 -21 73.5 -54.5t33.5 -97.5q0 -15 -3.5 -33.5t-11.5 -37.5
q-18 -41 -65 -75t-140 -34q-112 0 -174.5 42t-62.5 130l174 1v-2.5v-1.5q1 -22 12.5 -41t34.5 -19t38.5 19t16.5 41v1.5v1.5q0 36 -32 60t-72 45q-3 2 -6.5 4t-7.5 4q-44 24 -81 52t-37 72q0 35 19.5 56.5t43.5 37.5q5 4 10 7.5t10 6.5q18 12 30.5 25.5t12.5 31.5
q0 35 -21.5 50.5t-46.5 19.5q-5 0 -9.5 0.5t-9.5 0.5q-49 0 -70.5 -25t-27.5 -54q-2 -10 -3 -20t-1 -19v-511h-197v0z" />
    <glyph glyph-name="agrave" unicode="&#xe0;" horiz-adv-x="614" 
d="M378 63q-3 -7 -7 -13.5t-10 -12.5q-18 -20 -51 -36.5t-82 -16.5q-98 0 -139 36.5t-52 80.5q-3 14 -4.5 28t-1.5 27q6 107 111.5 140.5t235.5 33.5q0 41 -7 71.5t-48 30.5q-31 0 -44.5 -17t-16.5 -37q-1 -6 -1.5 -12.5t-0.5 -12.5l-189 1q0 88 73 126.5t179 38.5
q95 0 165.5 -35.5t70.5 -106.5v-259q0 -24 2 -54t14 -64h-189l-1 4l-3 12q-1 8 -2.5 19.5t-1.5 26.5v1zM378 236q-12 -1 -25.5 -1.5t-27.5 -2.5q-34 -4 -63.5 -15.5t-33.5 -36.5q0 -2 -0.5 -3.5t-0.5 -3.5q-1 -2 -1 -3.5v-3.5q0 -26 22 -48t50 -22q4 0 8 0.5t8 1.5
q8 2 16.5 7t15.5 12q16 16 22.5 35.5t8.5 39.5q1 11 1 22v21v1zM94 724h221l110 -149h-126l-205 149v0z" />
    <glyph glyph-name="aacute" unicode="&#xe1;" horiz-adv-x="614" 
d="M370 63q-3 -7 -7 -13.5t-10 -12.5q-18 -20 -51 -36.5t-82 -16.5q-98 0 -139 36.5t-51 80.5q-4 14 -5 28t-1 27q5 107 110.5 140.5t235.5 33.5q0 41 -7 71.5t-48 30.5q-31 0 -44.5 -17t-16.5 -37q-1 -6 -1.5 -12.5t-0.5 -12.5l-189 1q0 88 73 126.5t179 38.5
q95 0 165.5 -35.5t70.5 -106.5v-259q0 -24 2 -54t14 -64h-189l-1 4l-3 12q-1 8 -2.5 19.5t-1.5 26.5v1zM370 236q-12 -1 -25.5 -1.5t-27.5 -2.5q-34 -4 -63.5 -15.5t-33.5 -36.5q0 -2 -0.5 -3.5t-0.5 -3.5q-1 -2 -1 -3.5v-3.5q0 -26 22 -48t50 -22q13 0 25.5 5t23.5 16
q15 16 21.5 35.5t8.5 39.5q1 11 1 22v21v1zM213 575l110 149h220l-197 -149h-133v0z" />
    <glyph glyph-name="acircumflex" unicode="&#xe2;" horiz-adv-x="614" 
d="M370 63q-3 -7 -7 -13.5t-10 -12.5q-18 -20 -51 -36.5t-82 -16.5q-98 0 -139 36.5t-51 80.5q-4 14 -5 28t-1 27q5 107 110.5 140.5t235.5 33.5q0 41 -7 71.5t-48 30.5q-31 0 -44.5 -17t-16.5 -37q-1 -6 -1.5 -12.5t-0.5 -12.5l-189 1q0 88 73 126.5t179 38.5
q95 0 165.5 -35.5t70.5 -106.5v-259q0 -24 2 -54t14 -64h-189l-1 4l-3 12q-1 8 -2.5 19.5t-1.5 26.5v1zM370 236q-12 -1 -25.5 -1.5t-27.5 -2.5q-34 -4 -63.5 -15.5t-33.5 -36.5q0 -2 -0.5 -3.5t-0.5 -3.5q-1 -2 -1 -3.5v-3.5q0 -26 22 -48t50 -22q13 0 25.5 5t23.5 16
q15 16 21.5 35.5t8.5 39.5q1 11 1 22v21v1zM228 724h174l118 -149h-134l-71 79l-71 -79h-134l118 149v0z" />
    <glyph glyph-name="atilde" unicode="&#xe3;" horiz-adv-x="614" 
d="M370 63q-3 -7 -7 -13.5t-10 -12.5q-18 -20 -51 -36.5t-82 -16.5q-98 0 -139 36.5t-51 80.5q-4 14 -5 28t-1 27q5 107 110.5 140.5t235.5 33.5q0 41 -7 71.5t-48 30.5q-31 0 -44.5 -17t-16.5 -37q-1 -6 -1.5 -12.5t-0.5 -12.5l-189 1q0 88 73 126.5t179 38.5
q95 0 165.5 -35.5t70.5 -106.5v-259q0 -24 2 -54t14 -64h-189l-1 4l-3 12q-1 8 -2.5 19.5t-1.5 26.5v1zM370 236q-12 -1 -25.5 -1.5t-27.5 -2.5q-34 -4 -63.5 -15.5t-33.5 -36.5q0 -2 -0.5 -3.5t-0.5 -3.5q-1 -2 -1 -3.5v-3.5q0 -26 22 -48t50 -22q13 0 25.5 5t23.5 16
q15 16 21.5 35.5t8.5 39.5q1 11 1 22v21v1zM102 567q12 58 47.5 103.5t94.5 45.5q30 0 56.5 -6t49.5 -14q22 -7 41 -13.5t34 -6.5q18 0 24.5 8.5t10.5 18.5q0 1 0.5 1.5t0.5 1.5q1 2 2 5t2 5l86 1q-5 -64 -41.5 -102.5t-79.5 -46.5q-5 -1 -10.5 -1.5t-10.5 -0.5
q-16 0 -34.5 4t-36.5 10q-5 1 -9.5 2.5t-8.5 3.5q-23 7 -44.5 13t-39.5 6q-23 0 -32 -10.5t-15 -28.5l-87 1v0z" />
    <glyph glyph-name="adieresis" unicode="&#xe4;" horiz-adv-x="614" 
d="M370 63q-3 -7 -7 -13.5t-10 -12.5q-18 -20 -51 -36.5t-82 -16.5q-98 0 -139 36.5t-51 80.5q-4 14 -5 28t-1 27q5 107 110.5 140.5t235.5 33.5q0 41 -7 71.5t-48 30.5q-31 0 -44.5 -17t-16.5 -37q-1 -6 -1.5 -12.5t-0.5 -12.5l-189 1q0 88 73 126.5t179 38.5
q95 0 165.5 -35.5t70.5 -106.5v-259q0 -24 2 -54t14 -64h-189l-1 4l-3 12q-1 8 -2.5 19.5t-1.5 26.5v1zM370 236q-12 -1 -25.5 -1.5t-27.5 -2.5q-34 -4 -63.5 -15.5t-33.5 -36.5q0 -2 -0.5 -3.5t-0.5 -3.5q-1 -2 -1 -3.5v-3.5q0 -26 22 -48t50 -22q13 0 25.5 5t23.5 16
q15 16 21.5 35.5t8.5 39.5q1 11 1 22v21v1zM94 724h174v-149h-174v149v0zM354 724h174v-149h-174v149v0z" />
    <glyph glyph-name="aring" unicode="&#xe5;" horiz-adv-x="614" 
d="M370 63q-3 -7 -7 -13.5t-10 -12.5q-18 -20 -51 -36.5t-82 -16.5q-98 0 -139 36.5t-51 80.5q-4 14 -5 28t-1 27q5 107 110.5 140.5t235.5 33.5q0 41 -7 71.5t-48 30.5q-31 0 -44.5 -17t-16.5 -37q-1 -6 -1.5 -12.5t-0.5 -12.5l-189 1q0 88 73 126.5t179 38.5
q95 0 165.5 -35.5t70.5 -106.5v-259q0 -24 2 -54t14 -64h-189l-1 4l-3 12q-1 8 -2.5 19.5t-1.5 26.5v1zM370 236q-12 -1 -25.5 -1.5t-27.5 -2.5q-34 -4 -63.5 -15.5t-33.5 -36.5q0 -2 -0.5 -3.5t-0.5 -3.5q-1 -2 -1 -3.5v-3.5q0 -26 22 -48t50 -22q13 0 25.5 5t23.5 16
q15 16 21.5 35.5t8.5 39.5q1 11 1 22v21v1zM189 646q0 46 31.5 77.5t78.5 31.5q53 0 85.5 -31.5t32.5 -78.5q0 -42 -31 -72t-68 -37q-5 -1 -9.5 -1.5t-9.5 -0.5q-46 0 -77.5 34t-32.5 74v1.5v1.5v1zM346 646q0 22 -14.5 34t-32.5 12h-1.5h-1.5q-16 -1 -29.5 -14.5
t-14.5 -29.5v-1.5v-1.5q0 -18 12 -33t35 -15q18 0 32.5 15t14.5 33v1z" />
    <glyph glyph-name="Otilde" unicode="&#xe6;" horiz-adv-x="945" 
d="M457 87q-20 -27 -39 -44.5t-38 -28.5q-38 -22 -77 -26t-83 -4q-98 0 -139 36.5t-51 80.5q-4 14 -5 28t-1 27q5 107 110.5 140.5t235.5 33.5v8v8q1 36 -6 61t-49 25q-35 0 -45 -17.5t-15 -38.5v-1.5v-1.5q-1 -3 -1.5 -6t-1.5 -6l-189 1v1.5v2.5v2.5v2.5q-1 77 74 116.5
t178 39.5q47 0 92.5 -15t80.5 -56q17 23 41 37.5t50 22.5q20 6 39.5 8.5t35.5 2.5h9.5h9.5q90 -5 165 -70t75 -245l-362 1q0 -3 -0.5 -5t-0.5 -4v-4v-4q0 -45 29.5 -73t64.5 -29h1.5h1.5q28 0 51.5 18.5t33.5 59.5l181 1q0 -17 -5 -37t-16 -41q-23 -42 -75.5 -76.5
t-147.5 -34.5q-82 0 -124.5 20.5t-63.5 46.5q-8 9 -13.5 18t-10.5 17v1zM370 236q-9 -1 -18 -1t-18 -1q-40 -2 -74.5 -13.5t-39.5 -40.5q0 -2 -0.5 -3.5t-0.5 -3.5q-1 -2 -1 -3.5v-3.5q0 -26 22 -48t50 -22q13 0 25.5 5t23.5 16q15 16 21.5 35.5t8.5 39.5q1 11 1 22v21v1z
M732 323q0 3 -0.5 8t-0.5 9q-4 32 -24 58t-61 26t-65 -27.5t-30 -74.5l181 1v0z" />
    <glyph glyph-name="ccedilla" unicode="&#xe7;" horiz-adv-x="614" 
d="M378 205h197q0 -113 -76.5 -167t-183.5 -54l-24 -31q6 1 12.5 1.5t13.5 0.5q5 0 11 -0.5t11 -0.5q35 -4 64.5 -22.5t29.5 -57.5q0 -38 -38 -58t-83 -26q-11 -2 -22.5 -2.5t-21.5 -0.5q-41 0 -77 6t-65 18l24 55q13 -5 28 -8.5t30 -6.5q12 -2 24 -3t23 -1q26 0 43 6t17 21
q0 17 -16 23.5t-36 6.5q-14 0 -27.5 -2t-22.5 -4l-24 23l47 71q-84 10 -126.5 53.5t-60.5 93.5q-11 34 -14.5 66t-3.5 54q0 124 79 192t197 68q19 0 40 -1.5t42 -4.5q70 -12 128 -54t58 -137l-197 1q0 40 -18 62.5t-53 22.5t-53 -41t-18 -100v-10v-10q1 -55 14.5 -100.5
t56.5 -45.5q35 0 53 25t18 78v1z" />
    <glyph glyph-name="egrave" unicode="&#xe8;" horiz-adv-x="614" 
d="M386 165h181q-6 -101 -82.5 -141t-177.5 -40q-136 0 -206 65.5t-70 201.5q0 124 72 196t196 72q160 0 218 -92.5t58 -222.5l-362 1q0 -10 0.5 -23t3.5 -27q6 -23 24 -42.5t58 -19.5q4 0 8 0.5t8 0.5q26 4 48.5 21.5t22.5 48.5v1zM386 315q0 46 -26 73.5t-61 27.5
t-60.5 -30.5t-25.5 -71.5l173 1v0zM79 732h220l110 -149h-126l-204 149v0z" />
    <glyph glyph-name="eacute" unicode="&#xe9;" horiz-adv-x="614" 
d="M386 165h181q-12 -89 -79.5 -135t-180.5 -46q-142 0 -209 65.5t-67 201.5q0 124 72 196t196 72q160 0 218 -92.5t58 -222.5l-362 1q0 -10 0.5 -23t3.5 -27q6 -23 24 -42.5t58 -19.5q4 0 8 0.5t8 0.5q26 4 48.5 21.5t22.5 48.5v1zM386 315q0 46 -26 73.5t-61 27.5
t-60.5 -30.5t-25.5 -71.5l173 1v0zM165 583l111 149h220l-197 -149h-134v0z" />
    <glyph glyph-name="ecircumflex" unicode="&#xea;" horiz-adv-x="614" 
d="M386 165h181q-12 -89 -79.5 -135t-180.5 -46q-142 0 -209 65.5t-67 201.5q0 124 72 196t196 72q160 0 218 -92.5t58 -222.5l-362 1q0 -10 0.5 -23t3.5 -27q6 -23 24 -42.5t58 -19.5q4 0 8 0.5t8 0.5q26 4 48.5 21.5t22.5 48.5v1zM386 315q0 46 -26 73.5t-61 27.5
t-60.5 -30.5t-25.5 -71.5l173 1v0zM220 732h174l118 -149h-134l-71 78l-71 -78h-134l118 149v0z" />
    <glyph glyph-name="edieresis" unicode="&#xeb;" horiz-adv-x="614" 
d="M386 165h181q-12 -89 -79.5 -135t-180.5 -46q-142 0 -209 65.5t-67 201.5q0 124 72 196t196 72q160 0 218 -92.5t58 -222.5l-362 1q0 -10 0.5 -23t3.5 -27q6 -23 24 -42.5t58 -19.5q4 0 8 0.5t8 0.5q26 4 48.5 21.5t22.5 48.5v1zM386 315q0 46 -26 73.5t-61 27.5
t-60.5 -30.5t-25.5 -71.5l173 1v0zM87 732h173v-149h-173v149v0zM346 732h174v-149h-174v149v0z" />
    <glyph glyph-name="igrave" unicode="&#xec;" 
d="M71 512h197v-512h-197v512v0zM-71 724h221l110 -149h-126l-205 149v0z" />
    <glyph glyph-name="iacute" unicode="&#xed;" 
d="M71 512h197v-512h-197v512v0zM102 575l111 149h220l-197 -149h-134v0z" />
    <glyph glyph-name="icircumflex" unicode="&#xee;" 
d="M71 512h197v-512h-197v512v0zM79 732h173l118 -149h-134l-71 78l-71 -78h-133l118 149v0z" />
    <glyph glyph-name="idieresis" unicode="&#xef;" 
d="M71 512h197v-512h-197v512v0zM-47 732h173v-149h-173v149v0zM213 732h173v-149h-173v149v0z" />
    <glyph glyph-name="glyph233" unicode="&#xf0;" horiz-adv-x="669" 
 />
    <glyph glyph-name="ntilde" unicode="&#xf1;" horiz-adv-x="669" 
d="M55 512h197q0 -1 1.5 -6.5t2.5 -14.5q1 -8 2.5 -18.5t1.5 -21.5v-1.5v-1.5q23 29 60 50t89 21q16 0 38 -2.5t44 -9.5q43 -13 79 -46.5t36 -99.5v-361h-189v307q0 48 -23.5 71t-52.5 24h-1.5h-1.5q-29 -1 -53.5 -24t-24.5 -64v-314h-197v402q0 20 -1 39.5t-3 35.5
q-1 15 -2.5 24.5l-1.5 9.5v1zM134 575q12 58 47.5 103t94.5 45q29 0 55.5 -6t49.5 -13q23 -8 42 -14t34 -6q17 0 23.5 8t9.5 17q1 1 1 2t1 2q1 3 2 5.5t2 4.5l87 1q-5 -64 -41.5 -102t-79.5 -46q-5 -1 -10.5 -1.5t-10.5 -0.5q-16 0 -34.5 4t-36.5 10q-5 1 -9.5 2.5t-8.5 3.5
q-23 7 -44.5 13t-39.5 6q-24 0 -33 -11t-15 -28l-86 1v0z" />
    <glyph glyph-name="ograve" unicode="&#xf2;" horiz-adv-x="669" 
d="M39 260q6 100 66 179.5t226 79.5q130 0 214.5 -61t84.5 -191t-67 -193t-147 -80q-22 -5 -43.5 -7.5t-41.5 -2.5q-130 0 -211 75.5t-81 199.5v1zM425 260v7.5v9.5q-2 49 -21 90t-73 41q-47 0 -71 -38t-24 -103q0 -83 27 -124.5t68 -41.5q44 0 64 33t26 73q2 14 3 27t1 25
v1zM94 724h221l110 -149h-126l-205 149v0z" />
    <glyph glyph-name="oacute" unicode="&#xf3;" horiz-adv-x="669" 
d="M39 260q6 100 66 179.5t226 79.5q130 0 214.5 -61t84.5 -191t-67 -193t-147 -80q-22 -5 -43.5 -7.5t-41.5 -2.5q-130 0 -211 75.5t-81 199.5v1zM425 260v7.5v9.5q-2 49 -21 90t-73 41q-47 0 -71 -38t-24 -103q0 -83 27 -124.5t68 -41.5q44 0 64 33t26 73q2 14 3 27t1 25
v1zM228 575l111 149h220l-197 -149h-134v0z" />
    <glyph glyph-name="ocircumflex" unicode="&#xf4;" horiz-adv-x="669" 
d="M39 260q6 100 66 179.5t226 79.5q130 0 214.5 -61t84.5 -191t-67 -193t-147 -80q-22 -5 -43.5 -7.5t-41.5 -2.5q-130 0 -211 75.5t-81 199.5v1zM425 260v7.5v9.5q-2 49 -21 90t-73 41q-47 0 -71 -38t-24 -103q0 -83 27 -124.5t68 -41.5q44 0 64 33t26 73q2 14 3 27t1 25
v1zM244 724h173l118 -149h-133l-71 79l-71 -79h-134l118 149v0z" />
    <glyph glyph-name="otilde" unicode="&#xf5;" horiz-adv-x="669" 
d="M39 260q6 100 66 179.5t226 79.5q130 0 214.5 -61t84.5 -191t-67 -193t-147 -80q-22 -5 -43.5 -7.5t-41.5 -2.5q-130 0 -211 75.5t-81 199.5v1zM425 260v7.5v9.5q-2 49 -21 90t-73 41q-47 0 -71 -38t-24 -103q0 -83 27 -124.5t68 -41.5q44 0 64 33t26 73q2 14 3 27t1 25
v1zM134 583q12 58 47.5 103t94.5 45q29 0 55.5 -6t49.5 -13q23 -8 42 -14t34 -6q17 0 23.5 8t9.5 17q1 1 1 2t1 2q1 3 2 5.5t2 4.5l87 1q-5 -64 -41.5 -102t-79.5 -46q-5 -1 -10.5 -1.5t-10.5 -0.5q-16 0 -34.5 4t-36.5 10q-5 1 -9.5 2.5t-8.5 3.5q-23 7 -44.5 13t-39.5 6
q-24 0 -33 -11t-15 -28l-86 1v0z" />
    <glyph glyph-name="odieresis" unicode="&#xf6;" horiz-adv-x="669" 
d="M39 260q6 100 66 179.5t226 79.5q130 0 214.5 -61t84.5 -191t-67 -193t-147 -80q-22 -5 -43.5 -7.5t-41.5 -2.5q-130 0 -211 75.5t-81 199.5v1zM425 260v7.5v9.5q-2 49 -21 90t-73 41q-47 0 -71 -38t-24 -103q0 -83 27 -124.5t68 -41.5q44 0 64 33t26 73q2 14 3 27t1 25
v1zM118 724h173v-149h-173v149v0zM378 724h173v-149h-173v149v0z" />
    <glyph glyph-name="Aacute" unicode="&#xf7;" 
 />
    <glyph glyph-name="OE" unicode="&#xf8;" horiz-adv-x="669" 
d="M39 260q6 100 69 179.5t223 79.5q53 0 95.5 -8t77.5 -32l63 80l47 -39l-63 -79q41 -30 64 -79.5t23 -102.5q0 -127 -66.5 -187t-146.5 -78q-24 -5 -48 -7.5t-46 -2.5q-36 0 -70.5 7t-63.5 24l-71 -78l-55 39l71 79q-38 24 -61.5 62t-33.5 79q-4 16 -6 32t-2 31v1z
M283 126q6 -13 19 -19t37 -6q8 0 18 2.5t21 8.5q22 13 40.5 44.5t18.5 91.5q0 14 -1 28t-3 30l-150 -180v0zM409 378q-2 2 -4 5t-4 5q-8 12 -19 16t-36 4q-43 0 -71.5 -45.5t-28.5 -112.5q0 -15 1.5 -30.5t4.5 -31.5l157 190v0z" />
    <glyph glyph-name="ugrave" unicode="&#xf9;" horiz-adv-x="669" 
d="M63 512h197v-299v-9t1 -8q2 -33 16.5 -60t45.5 -27q53 0 69.5 35.5t16.5 82.5v285h189v-394q0 -11 0.5 -23.5t1.5 -25.5q1 -7 1.5 -13.5t0.5 -12.5q2 -18 3 -30.5l1 -12.5h-189l-1 3.5t-3 11.5q-1 7 -2.5 17t-1.5 22q-23 -29 -56.5 -49.5t-92.5 -20.5q-106 0 -151.5 56
t-45.5 132v340v0zM87 724h220l110 -149h-126l-204 149v0z" />
    <glyph glyph-name="uacute" unicode="&#xfa;" horiz-adv-x="669" 
d="M63 512h197v-299v-9t1 -8q2 -33 16.5 -60t45.5 -27q53 0 69.5 35.5t16.5 82.5v285h189v-394q0 -11 0.5 -23.5t1.5 -25.5q1 -7 1.5 -13.5t0.5 -12.5q2 -18 3 -30.5l1 -12.5h-189l-1 3.5t-3 11.5q-1 7 -2.5 17t-1.5 22q-23 -29 -56.5 -49.5t-92.5 -20.5q-106 0 -151.5 56
t-45.5 132v340v0zM228 575l111 149h220l-197 -149h-134v0z" />
    <glyph glyph-name="ucircumflex" unicode="&#xfb;" horiz-adv-x="669" 
d="M63 512h197v-299v-9t1 -8q2 -33 16.5 -60t45.5 -27q53 0 69.5 35.5t16.5 82.5v285h189v-394q0 -11 0.5 -23.5t1.5 -25.5q1 -7 1.5 -13.5t0.5 -12.5q2 -18 3 -30.5l1 -12.5h-189l-1 3.5t-3 11.5q-1 7 -2.5 17t-1.5 22q-23 -29 -56.5 -49.5t-92.5 -20.5q-106 0 -151.5 56
t-45.5 132v340v0zM244 724h173l118 -149h-133l-71 79l-71 -79h-134l118 149v0z" />
    <glyph glyph-name="udieresis" unicode="&#xfc;" horiz-adv-x="669" 
d="M63 512h197v-299v-9t1 -8q2 -33 16.5 -60t45.5 -27q53 0 69.5 35.5t16.5 82.5v285h189v-394q0 -11 0.5 -23.5t1.5 -25.5q1 -7 1.5 -13.5t0.5 -12.5q2 -18 3 -30.5l1 -12.5h-189l-1 3.5t-3 11.5q-1 7 -2.5 17t-1.5 22q-23 -29 -56.5 -49.5t-92.5 -20.5q-106 0 -151.5 56
t-45.5 132v340v0zM118 732h173v-149h-173v149v0zM378 732h173v-149h-173v149v0z" />
    <glyph glyph-name="yacute" unicode="&#xfd;" 
 />
    <glyph glyph-name="glyph237" unicode="&#xfe;" horiz-adv-x="669" 
 />
    <glyph glyph-name="Egrave" unicode="&#xff;" horiz-adv-x="614" 
d="M0 520h213l94 -355l110 355h181l-275 -709h-181l71 181l-213 528v0zM87 732h173v-149h-173v149v0zM346 732h174v-149h-174v149v0z" />
    <glyph glyph-name="Abreve" unicode="&#x102;" 
 />
    <glyph glyph-name="abreve" unicode="&#x103;" 
 />
    <glyph glyph-name="Aogonek" unicode="&#x104;" 
 />
    <glyph glyph-name="aogonek" unicode="&#x105;" 
 />
    <glyph glyph-name="Cacute" unicode="&#x106;" 
 />
    <glyph glyph-name="cacute" unicode="&#x107;" 
 />
    <glyph glyph-name="Ccaron" unicode="&#x10c;" 
 />
    <glyph glyph-name="ccaron" unicode="&#x10d;" 
 />
    <glyph glyph-name="Dcaron" unicode="&#x10e;" 
 />
    <glyph glyph-name="dcaron" unicode="&#x10f;" 
 />
    <glyph glyph-name="Dcroat" unicode="&#x110;" 
 />
    <glyph glyph-name="dcroat" unicode="&#x111;" 
 />
    <glyph glyph-name="Eogonek" unicode="&#x118;" 
 />
    <glyph glyph-name="eogonek" unicode="&#x119;" 
 />
    <glyph glyph-name="Ecaron" unicode="&#x11a;" 
 />
    <glyph glyph-name="ecaron" unicode="&#x11b;" 
 />
    <glyph glyph-name="Gbreve" unicode="&#x11e;" 
 />
    <glyph glyph-name="gbreve" unicode="&#x11f;" 
 />
    <glyph glyph-name="Idotaccent" unicode="&#x130;" 
 />
    <glyph glyph-name="thorn" unicode="&#x131;" 
d="M63 504h197v-504h-197v504v0z" />
    <glyph glyph-name="Lacute" unicode="&#x139;" 
 />
    <glyph glyph-name="lacute" unicode="&#x13a;" 
 />
    <glyph glyph-name="Lcaron" unicode="&#x13d;" 
 />
    <glyph glyph-name="lcaron" unicode="&#x13e;" 
 />
    <glyph glyph-name="Ldot" unicode="&#x13f;" 
 />
    <glyph glyph-name="ldot" unicode="&#x140;" 
 />
    <glyph glyph-name="glyph225" unicode="&#x141;" horiz-adv-x="500" 
 />
    <glyph glyph-name="glyph226" unicode="&#x142;" horiz-adv-x="500" 
 />
    <glyph glyph-name="Nacute" unicode="&#x143;" 
 />
    <glyph glyph-name="nacute" unicode="&#x144;" 
 />
    <glyph glyph-name="Ncaron" unicode="&#x147;" 
 />
    <glyph glyph-name="ncaron" unicode="&#x148;" 
 />
    <glyph glyph-name="Ohungarumlaut" unicode="&#x150;" 
 />
    <glyph glyph-name="ohungarumlaut" unicode="&#x151;" 
 />
    <glyph glyph-name="fi" unicode="&#x152;" horiz-adv-x="1000" 
d="M31 354q6 147 88 266t306 119l520 1v-157h-268v-142h244v-150h-244v-141h276v-150h-520q-224 0 -310 108.5t-92 244.5v1zM244 362q0 -112 52 -170t125 -58q13 0 25.5 1.5t25.5 5.5v457q-15 2 -29 3t-26 1q-100 0 -134 -70.5t-39 -170.5v1z" />
    <glyph glyph-name="fl" unicode="&#x153;" horiz-adv-x="1000" 
d="M39 260q6 100 66 179.5t226 79.5h2h3q63 -1 119.5 -21t79.5 -66q36 41 81.5 64t115.5 23q108 0 172.5 -68.5t64.5 -215.5v-11v-12l-355 1q0 -61 28.5 -90t62.5 -29h2h2q28 1 53 21t33 57l181 1q0 -89 -78.5 -139t-173.5 -50q-70 0 -124.5 25.5t-71.5 60.5
q-53 -59 -101.5 -72.5t-95.5 -13.5q-130 0 -211 75.5t-81 199.5v1zM425 260v7.5v9.5q-2 49 -21 90t-73 41q-47 0 -71 -38t-24 -103q0 -83 27 -124.5t68 -41.5q59 0 76.5 46.5t17.5 111.5v1zM795 315q-6 46 -29.5 73.5t-64.5 27.5q-35 0 -57 -27.5t-22 -74.5l173 1v0z" />
    <glyph glyph-name="Racute" unicode="&#x154;" 
 />
    <glyph glyph-name="racute" unicode="&#x155;" 
 />
    <glyph glyph-name="Rcaron" unicode="&#x158;" 
 />
    <glyph glyph-name="rcaron" unicode="&#x159;" 
 />
    <glyph glyph-name="Sacute" unicode="&#x15a;" 
 />
    <glyph glyph-name="sacute" unicode="&#x15b;" 
 />
    <glyph glyph-name="Scedilla" unicode="&#x15e;" 
 />
    <glyph glyph-name="scedilla" unicode="&#x15f;" 
 />
    <glyph glyph-name="glyph227" unicode="&#x160;" horiz-adv-x="500" 
 />
    <glyph glyph-name="glyph228" unicode="&#x161;" horiz-adv-x="500" 
 />
    <glyph glyph-name="uni0162" unicode="&#x162;" 
 />
    <glyph glyph-name="uni0163" unicode="&#x163;" 
 />
    <glyph glyph-name="Tcaron" unicode="&#x164;" 
 />
    <glyph glyph-name="tcaron" unicode="&#x165;" 
 />
    <glyph glyph-name="Uring" unicode="&#x16e;" 
 />
    <glyph glyph-name="uring" unicode="&#x16f;" 
 />
    <glyph glyph-name="Uhungarumlaut" unicode="&#x170;" 
 />
    <glyph glyph-name="uhungarumlaut" unicode="&#x171;" 
 />
    <glyph glyph-name="Iacute" unicode="&#x178;" horiz-adv-x="500" 
 />
    <glyph glyph-name="Zacute" unicode="&#x179;" 
 />
    <glyph glyph-name="zacute" unicode="&#x17a;" 
 />
    <glyph glyph-name="Zdotaccent" unicode="&#x17b;" 
 />
    <glyph glyph-name="zdotaccent" unicode="&#x17c;" 
 />
    <glyph glyph-name="Zcaron" unicode="&#x17d;" 
 />
    <glyph glyph-name="zcaron" unicode="&#x17e;" 
 />
    <glyph glyph-name="quotedblright" unicode="&#x192;" horiz-adv-x="213" 
d="M79 724h126v-724h-126v724v0z" />
    <glyph glyph-name="uni02BA" unicode="&#x2ba;" horiz-adv-x="500" 
 />
    <glyph glyph-name="arrowright" unicode="&#x2c6;" 
d="M-31 567q12 58 47 103.5t94 45.5q30 0 56.5 -6t49.5 -14q22 -7 41 -13.5t34 -6.5q18 0 24.5 8.5t10.5 18.5q0 1 0.5 1.5t0.5 1.5q1 2 2 5t2 5l86 1q-5 -65 -42 -103.5t-80 -45.5q-5 -1 -9.5 -1.5t-9.5 -0.5q-16 0 -34 4t-36 9q-5 2 -10 3.5t-10 3.5q-23 7 -44.5 13
t-39.5 6q-23 0 -32 -10.5t-15 -28.5l-86 1v0z" />
    <glyph glyph-name="glyph224" unicode="&#x2c7;" horiz-adv-x="500" 
 />
    <glyph glyph-name="house" unicode="&#x2c9;" horiz-adv-x="500" 
 />
    <glyph glyph-name="endash" unicode="&#x2d8;" 
d="M-24 724h87q0 -37 33.5 -55.5t73.5 -19.5q40 0 74 18.5t39 55.5l79 1q0 -65 -45 -115.5t-152 -50.5q-106 0 -147 50.5t-41 114.5z" />
    <glyph glyph-name="sfthyphen" unicode="&#x2d9;" horiz-adv-x="500" 
 />
    <glyph glyph-name="filledbox" unicode="&#x2da;" 
d="M55 646q0 46 31.5 77.5t78.5 31.5q53 0 85.5 -31.5t32.5 -78.5q0 -42 -31 -72t-68 -37q-5 -1 -9.5 -1.5t-9.5 -0.5q-46 0 -77.5 34t-32.5 74v1.5v1.5v1zM213 646q0 22 -15 34t-33 12h-1.5h-1.5q-16 -1 -29.5 -14.5t-14.5 -29.5v-1.5v-1.5q0 -18 12 -33t35 -15q18 0 33 15
t15 33v1z" />
    <glyph glyph-name="glyph223" unicode="&#x2db;" horiz-adv-x="500" 
 />
    <glyph glyph-name="onehalf" unicode="&#x2dc;" 
d="M79 732h173l118 -149h-134l-71 78l-71 -78h-133l118 149v0z" />
    <glyph glyph-name="Gamma" unicode="&#x393;" 
 />
    <glyph glyph-name="Theta" unicode="&#x398;" 
 />
    <glyph glyph-name="exclamdown" unicode="&#x3a3;" 
 />
    <glyph glyph-name="Phi" unicode="&#x3a6;" 
 />
    <glyph glyph-name="Atilde" unicode="&#x3a9;" 
 />
    <glyph glyph-name="alpha" unicode="&#x3b1;" 
 />
    <glyph glyph-name="delta" unicode="&#x3b4;" 
 />
    <glyph glyph-name="epsilon" unicode="&#x3b5;" 
 />
    <glyph glyph-name="guillemotleft" unicode="&#x3c0;" 
 />
    <glyph glyph-name="sigma" unicode="&#x3c3;" 
 />
    <glyph glyph-name="tau" unicode="&#x3c4;" 
 />
    <glyph glyph-name="phi" unicode="&#x3c6;" 
 />
    <glyph glyph-name="glyph259" unicode="&#x2013;" horiz-adv-x="504" 
d="M-8 331h512v-126h-512v126v0z" />
    <glyph glyph-name="periodcentered" unicode="&#x2014;" horiz-adv-x="1000" 
d="M-8 331h1000h8v-126h-1000h-8v126v0z" />
    <glyph glyph-name="underscoredbl" unicode="&#x2017;" 
 />
    <glyph glyph-name="Acircumflex" unicode="&#x2018;" 
d="M24 449l126 275h141l-71 -275h-196v0z" />
    <glyph glyph-name="Ecircumflex" unicode="&#x2019;" 
d="M47 465l63 267h197l-118 -267h-142v0z" />
    <glyph glyph-name="Ugrave" unicode="&#x201a;" 
 />
    <glyph glyph-name="quotedblbase" unicode="&#x201c;" horiz-adv-x="669" 
d="M205 724h134l-63 -244h-182l111 244v0zM449 724h134l-63 -244h-181l110 244v0z" />
    <glyph glyph-name="perthousand" unicode="&#x201d;" horiz-adv-x="669" 
d="M157 724h182l-111 -244h-134l63 244v0zM402 724h181l-111 -244h-141l71 244v0z" />
    <glyph glyph-name="dotlessi" unicode="&#x201e;" horiz-adv-x="669" 
d="M142 150h181l-110 -244h-134l63 244v0zM386 150h181l-110 -244h-142l71 244v0z" />
    <glyph glyph-name="dagger" unicode="&#x2020;" horiz-adv-x="669" 
d="M244 724h173v-157h166v-134h-166v-433h-173v433h-157v134h157v157v0z" />
    <glyph glyph-name="Uacute" unicode="&#x2021;" horiz-adv-x="669" 
d="M244 724h173v-149h166v-134h-166v-158h166v-133h-166v-150h-173v150h-165v133h165v158h-165v134h165v149v0z" />
    <glyph glyph-name="glyph262" unicode="&#x2022;" horiz-adv-x="504" 
d="M71 323h189v-150h-189v150v0z" />
    <glyph glyph-name="fraction" unicode="&#x2026;" horiz-adv-x="1000" 
d="M79 150h189v-150h-189v150v0zM417 150h189v-150h-189v150v0zM748 150h189v-150h-189v150v0z" />
    <glyph glyph-name="circumflex" unicode="&#x2030;" horiz-adv-x="1000" 
d="M701 157q0 82 40.5 127.5t116.5 45.5q65 0 103.5 -42.5t38.5 -131.5q0 -67 -27 -119.5t-107 -53.5h-4h-4q-2 1 -4 1h-4q-76 0 -109.5 48t-39.5 124v1zM819 157q0 -36 4 -65.5t27 -29.5q24 0 32 29.5t8 64.5q0 42 -8 64.5t-32 22.5q-20 0 -25.5 -22.5t-5.5 -48.5v-8v-8v1z
M362 157q0 70 34 121.5t116 51.5q83 0 116 -48.5t33 -125.5q0 -76 -34 -124t-123 -48q-75 0 -104.5 42t-35.5 94q-1 9 -1.5 18t-0.5 18v1zM472 157q0 -36 8 -65.5t32 -29.5q18 0 24 20.5t7 45.5v14v14v8v8q0 26 -5.5 48.5t-25.5 22.5q-21 0 -29.5 -22.5t-10.5 -48.5v-8v-8v1
zM488 709h103l-434 -709h-102l433 709v0zM16 543q0 88 42.5 130.5t106.5 42.5q65 0 107.5 -42.5t42.5 -131.5q0 -88 -40.5 -134.5t-117.5 -46.5q-76 0 -108.5 52.5t-32.5 128.5v1zM197 535v12v14q-1 26 -7 47t-25 21q-18 0 -26.5 -21t-11.5 -47q0 -7 -0.5 -14t-0.5 -13v-8.5
t1 -8.5q1 -26 9.5 -47.5t28.5 -21.5q24 0 28 25.5t4 60.5v1z" />
    <glyph glyph-name="Igrave" unicode="&#x2039;" 
d="M24 260l126 197h165l-126 -197l126 -197h-165l-126 197v0z" />
    <glyph glyph-name="Oacute" unicode="&#x203a;" 
d="M307 268l-126 -197h-157l118 197l-118 197h157l126 -197v0z" />
    <glyph glyph-name="exclamdbl" unicode="&#x203c;" 
 />
    <glyph glyph-name="uni207F" unicode="&#x207f;" 
 />
    <glyph glyph-name="franc" unicode="&#x20a3;" 
 />
    <glyph glyph-name="peseta" unicode="&#x20a7;" 
 />
    <glyph glyph-name="trademark" unicode="&#x2122;" horiz-adv-x="953" 
d="M16 732h346v-86h-126v-323h-94v323h-126v86v0zM409 732h150l87 -236l86 236h142v-409h-87v307l-110 -307h-63l-110 307v-307h-95v409v0z" />
    <glyph glyph-name="arrowleft" unicode="&#x2190;" 
 />
    <glyph glyph-name="arrowup" unicode="&#x2191;" 
 />
    <glyph glyph-name="glyph257" unicode="&#x2192;" horiz-adv-x="500" 
 />
    <glyph glyph-name="arrowdown" unicode="&#x2193;" 
 />
    <glyph glyph-name="arrowboth" unicode="&#x2194;" 
 />
    <glyph glyph-name="arrowupdn" unicode="&#x2195;" 
 />
    <glyph glyph-name="arrowupdnbse" unicode="&#x21a8;" 
 />
    <glyph glyph-name="questiondown" unicode="&#x2202;" 
 />
    <glyph glyph-name="quoteright" unicode="&#x2206;" 
 />
    <glyph glyph-name="florin" unicode="&#x220f;" 
 />
    <glyph glyph-name="minus" unicode="&#x2212;" 
 />
    <glyph glyph-name="Icircumflex" unicode="&#x2215;" horiz-adv-x="500" 
 />
    <glyph glyph-name="Ucircumflex" unicode="&#x2219;" 
d="M71 354q0 82 56 131t133 49q11 0 22.5 -1.5t22.5 -4.5q51 -14 93.5 -58.5t42.5 -116.5t-48.5 -119t-106.5 -59q-9 -1 -17.5 -2t-16.5 -1q-76 0 -128.5 52.5t-52.5 128.5v1z" />
    <glyph glyph-name="quotedblleft" unicode="&#x221a;" 
 />
    <glyph glyph-name="yen" unicode="&#x221e;" 
 />
    <glyph glyph-name="orthogonal" unicode="&#x221f;" 
 />
    <glyph glyph-name="intersection" unicode="&#x2229;" 
 />
    <glyph glyph-name="guillemotright" unicode="&#x222b;" 
 />
    <glyph glyph-name="quoteleft" unicode="&#x2248;" 
 />
    <glyph glyph-name="AE" unicode="&#x2260;" 
 />
    <glyph glyph-name="equivalence" unicode="&#x2261;" 
 />
    <glyph glyph-name="ordfeminine" unicode="&#x2264;" 
 />
    <glyph glyph-name="ordmasculine" unicode="&#x2265;" 
 />
    <glyph glyph-name="glyph258" unicode="&#x2302;" 
 />
    <glyph glyph-name="revlogicalnot" unicode="&#x2310;" 
 />
    <glyph glyph-name="integraltp" unicode="&#x2320;" 
 />
    <glyph glyph-name="integralbt" unicode="&#x2321;" 
 />
    <glyph glyph-name="SF100000" unicode="&#x2500;" 
 />
    <glyph glyph-name="SF110000" unicode="&#x2502;" 
 />
    <glyph glyph-name="SF010000" unicode="&#x250c;" 
 />
    <glyph glyph-name="SF030000" unicode="&#x2510;" 
 />
    <glyph glyph-name="SF020000" unicode="&#x2514;" 
 />
    <glyph glyph-name="SF040000" unicode="&#x2518;" 
 />
    <glyph glyph-name="SF080000" unicode="&#x251c;" 
 />
    <glyph glyph-name="SF090000" unicode="&#x2524;" 
 />
    <glyph glyph-name="SF060000" unicode="&#x252c;" 
 />
    <glyph glyph-name="SF070000" unicode="&#x2534;" 
 />
    <glyph glyph-name="SF050000" unicode="&#x253c;" 
 />
    <glyph glyph-name="SF430000" unicode="&#x2550;" 
 />
    <glyph glyph-name="SF240000" unicode="&#x2551;" 
 />
    <glyph glyph-name="SF510000" unicode="&#x2552;" 
 />
    <glyph glyph-name="SF520000" unicode="&#x2553;" 
 />
    <glyph glyph-name="SF390000" unicode="&#x2554;" 
 />
    <glyph glyph-name="SF220000" unicode="&#x2555;" 
 />
    <glyph glyph-name="SF210000" unicode="&#x2556;" 
 />
    <glyph glyph-name="SF250000" unicode="&#x2557;" 
 />
    <glyph glyph-name="SF500000" unicode="&#x2558;" 
 />
    <glyph glyph-name="SF490000" unicode="&#x2559;" 
 />
    <glyph glyph-name="SF380000" unicode="&#x255a;" 
 />
    <glyph glyph-name="SF280000" unicode="&#x255b;" 
 />
    <glyph glyph-name="SF270000" unicode="&#x255c;" 
 />
    <glyph glyph-name="SF260000" unicode="&#x255d;" 
 />
    <glyph glyph-name="SF360000" unicode="&#x255e;" 
 />
    <glyph glyph-name="SF370000" unicode="&#x255f;" 
 />
    <glyph glyph-name="SF420000" unicode="&#x2560;" 
 />
    <glyph glyph-name="SF190000" unicode="&#x2561;" 
 />
    <glyph glyph-name="SF200000" unicode="&#x2562;" 
 />
    <glyph glyph-name="SF230000" unicode="&#x2563;" 
 />
    <glyph glyph-name="SF470000" unicode="&#x2564;" 
 />
    <glyph glyph-name="SF480000" unicode="&#x2565;" 
 />
    <glyph glyph-name="SF410000" unicode="&#x2566;" 
 />
    <glyph glyph-name="SF450000" unicode="&#x2567;" 
 />
    <glyph glyph-name="SF460000" unicode="&#x2568;" 
 />
    <glyph glyph-name="SF400000" unicode="&#x2569;" 
 />
    <glyph glyph-name="SF540000" unicode="&#x256a;" 
 />
    <glyph glyph-name="SF530000" unicode="&#x256b;" 
 />
    <glyph glyph-name="SF440000" unicode="&#x256c;" 
 />
    <glyph glyph-name="upblock" unicode="&#x2580;" 
 />
    <glyph glyph-name="dnblock" unicode="&#x2584;" 
 />
    <glyph glyph-name="block" unicode="&#x2588;" 
 />
    <glyph glyph-name="lfblock" unicode="&#x258c;" 
 />
    <glyph glyph-name="rtblock" unicode="&#x2590;" 
 />
    <glyph glyph-name="ltshade" unicode="&#x2591;" 
 />
    <glyph glyph-name="shade" unicode="&#x2592;" 
 />
    <glyph glyph-name="dkshade" unicode="&#x2593;" 
 />
    <glyph glyph-name="glyph261" unicode="&#x25a0;" horiz-adv-x="500" 
 />
    <glyph glyph-name="filledrect" unicode="&#x25ac;" 
 />
    <glyph glyph-name="triagup" unicode="&#x25b2;" 
 />
    <glyph glyph-name="triagrt" unicode="&#x25ba;" 
 />
    <glyph glyph-name="triagdn" unicode="&#x25bc;" 
 />
    <glyph glyph-name="triaglf" unicode="&#x25c4;" 
 />
    <glyph glyph-name="Edieresis" unicode="&#x25ca;" 
 />
    <glyph glyph-name="circle" unicode="&#x25cb;" 
 />
    <glyph glyph-name="invbullet" unicode="&#x25d8;" 
 />
    <glyph glyph-name="invcircle" unicode="&#x25d9;" 
 />
    <glyph glyph-name="smileface" unicode="&#x263a;" 
 />
    <glyph glyph-name="invsmileface" unicode="&#x263b;" 
 />
    <glyph glyph-name="sun" unicode="&#x263c;" 
 />
    <glyph glyph-name="female" unicode="&#x2640;" 
 />
    <glyph glyph-name="male" unicode="&#x2642;" 
 />
    <glyph glyph-name="spade" unicode="&#x2660;" 
 />
    <glyph glyph-name="club" unicode="&#x2663;" 
 />
    <glyph glyph-name="heart" unicode="&#x2665;" 
 />
    <glyph glyph-name="diamond" unicode="&#x2666;" 
 />
    <glyph glyph-name="musicalnote" unicode="&#x266a;" 
 />
    <glyph glyph-name="musicalnotedbl" unicode="&#x266b;" 
 />
    <glyph glyph-name="Scaron" unicode="&#xf000;" 
 />
    <glyph glyph-name="Ocircumflex" unicode="&#xf001;" horiz-adv-x="724" 
d="M110 378h-94v126h94v1v2q0 70 15.5 131.5t79.5 84.5q26 11 52.5 15t51.5 4q22 0 43 -2t40 -5q9 -1 17 -2l16 -2v-133q-18 7 -32.5 10.5t-25.5 3.5q-35 0 -46.5 -27t-12.5 -59q-1 -6 -1 -11.5v-11.5l110 1v-126h-110v-378h-197v378v0zM457 512h197v-512h-197v512v0z
M457 724h197v-126h-197v126v0z" />
    <glyph glyph-name="Ograve" unicode="&#xf002;" horiz-adv-x="724" 
d="M110 378h-94v126h94v1v2q0 70 15.5 131.5t79.5 84.5q26 11 52.5 15t51.5 4q22 0 43 -2t40 -5q9 -1 17 -2l16 -2v-133q-18 7 -32.5 10.5t-25.5 3.5q-35 0 -46.5 -27t-12.5 -59q-1 -6 -1 -11.5v-11.5l110 1v-126h-110v-378h-197v378v0zM457 724h189v-724h-189v724v0z" />
    <glyph glyph-name="degree" horiz-adv-x="500" 
 />
    <glyph glyph-name="bullet" horiz-adv-x="504" 
d="M71 323h189v-150h-189v150v0z" />
    <glyph glyph-name="daggerdbl" horiz-adv-x="504" 
d="M-8 331h512v-126h-512v126v0z" />
    </font>
</defs>
</svg>
