<?xml version="1.0" standalone="no"?>
<!DOCTYPE svg PUBLIC "-//W3C//DTD SVG 1.1//EN" "http://www.w3.org/Graphics/SVG/1.1/DTD/svg11.dtd" >
<svg xmlns="http://www.w3.org/2000/svg" xmlns:xlink="http://www.w3.org/1999/xlink" version="1.1">
<metadata>
Created by FontForge 20161116 at Mon Apr 20 17:03:02 1998
 By Jimmy Wärting
Copyright (c) 1987, 1993, 1995 Adobe Systems Incorporated.  All Rights Reserved.Univers is a trademark of Linotype-Hell AG and/or its subsidiaries.
</metadata>
<defs>
<font id="UniversCE-Medium" horiz-adv-x="556" >
  <font-face 
    font-family="Univers CE 55 Medium"
    font-weight="500"
    font-stretch="normal"
    units-per-em="1000"
    panose-1="2 0 6 3 4 0 0 2 0 3"
    ascent="800"
    descent="-200"
    x-height="502"
    cap-height="722"
    bbox="-168 -287 992 936"
    underline-thickness="50"
    underline-position="-125"
    unicode-range="U+0020-FB02"
  />
<missing-glyph horiz-adv-x="278" 
 />
    <glyph glyph-name=".notdef" horiz-adv-x="278" 
 />
    <glyph glyph-name="exclam" unicode="!" horiz-adv-x="389" 
d="M262 721h-112l19 -556h71zM149 0h106v100h-106v-100z" />
    <glyph glyph-name="quotedbl" unicode="&#x22;" horiz-adv-x="400" 
d="M76 692l15 -246h54l14 246h-83zM241 692l14 -246h54l15 246h-83z" />
    <glyph glyph-name="numbersign" unicode="#" 
d="M5 197h100l-36 -197h80l37 197h121l-36 -197h80l37 197h112v69h-99l27 149h113v69h-100l39 208h-81l-38 -208h-122l39 208h-81l-38 -208h-113v-69h100l-28 -149h-112zM199 266l27 149h122l-28 -149h-121z" />
    <glyph glyph-name="dollar" unicode="$" 
d="M253 775v-82q-10 0 -24.5 -1t-31.5 -4t-35.5 -9.5t-35.5 -16.5q-13 -8 -28 -21t-27.5 -31t-21 -42.5t-8.5 -55.5q0 -40 9.5 -69t33.5 -51.5t64 -41t102 -36.5v-234q-36 1 -59.5 12t-37 27.5t-19 35t-4.5 35.5h-102q0 -16 1.5 -33t7 -35t16.5 -35.5t31 -35.5
q22 -20 45 -31.5t44 -16.5t40.5 -6.5t36.5 -1.5v-99h51v99q13 1 30 3t35.5 6t37.5 11t36 18q10 6 25 19t29.5 33t25 48t10.5 65q0 52 -21 87t-54 58t-73.5 36.5t-78.5 24.5v209q22 -1 42 -5t35.5 -13.5t24.5 -25t10 -39.5h105q-1 39 -14.5 66.5t-33.5 45.5t-44.5 28.5
t-48.5 15.5t-44 6.5t-31 1.5v81h-51zM252 419q-18 5 -38 12t-36.5 18t-27 28t-10.5 42q0 7 2.5 21t13 29t33 27.5t63.5 16.5v-194zM303 301q19 -6 40.5 -14t40 -21t30.5 -32.5t12 -47.5q0 -18 -7 -37t-22 -34t-38 -25t-56 -10v221z" />
    <glyph glyph-name="percent" unicode="%" horiz-adv-x="889" 
d="M222 711q-42 0 -74 -14t-53.5 -38.5t-32 -58t-10.5 -72.5q0 -46 13 -79t35 -54.5t51 -31.5t62 -10q34 0 64 11t52 33t35 56t13 81q0 34 -8 66t-26.5 56.5t-48 39.5t-72.5 15zM215 411q-32 0 -49.5 15t-25.5 35t-9.5 39.5t-1.5 28.5t1.5 29t9.5 41t25.5 36.5t49.5 15.5
q27 0 43 -12t25 -30t12 -39.5t3 -39.5q0 -8 -1.5 -27.5t-9 -39.5t-24.5 -36t-48 -16zM675 346q-33 0 -63 -11t-52.5 -33.5t-35.5 -56.5t-13 -79q0 -31 7.5 -63t26.5 -57.5t50.5 -41.5t79.5 -16q81 0 121 50.5t40 132.5q0 28 -4 48.5t-10 35.5t-13 25t-14 18
q-15 16 -31.5 25.5t-33 14.5t-31 6.5t-24.5 1.5zM674 47q-29 0 -45.5 12t-25 29.5t-11 36t-2.5 31.5q0 11 1.5 33.5t9.5 45t25.5 39t49.5 16.5q29 0 46 -14.5t25.5 -34.5t10.5 -40t2 -32q0 -14 -2 -34.5t-11 -40t-26 -33.5t-47 -14zM251 -39l441 770h-66l-441 -770h66z" />
    <glyph glyph-name="ampersand" unicode="&#x26;" horiz-adv-x="778" 
d="M595 468q0 -47 -3 -81t-9.5 -61.5t-16.5 -50.5t-24 -46l-177 175q16 10 39.5 27.5t46 42t38.5 56.5t16 72q0 29 -11.5 54.5t-31.5 44.5q-9 8 -20.5 16t-28.5 14.5t-42 10.5t-59 4q-94 0 -144 -44t-50 -115q0 -32 8.5 -58t21.5 -46.5t27.5 -36t25.5 -25.5
q-28 -21 -55.5 -43.5t-49 -50t-34.5 -61t-13 -75.5q0 -43 16 -81t47 -66t76.5 -44.5t103.5 -16.5q75 0 137 28t113 78l94 -89h140l-172 167q25 33 42 64.5t27 66.5t14.5 76t4.5 94h-97zM301 469q-33 32 -54.5 62t-21.5 61q0 29 24.5 51.5t65.5 22.5q22 0 38 -6.5t26 -16.5
t14.5 -22t4.5 -23q0 -24 -11.5 -44.5t-27.5 -37t-32.5 -29t-25.5 -18.5zM477 149q-10 -10 -25 -24t-36 -27t-48 -22t-61 -9q-23 0 -49.5 6t-49.5 20t-38.5 38.5t-15.5 62.5q0 40 24.5 79t86.5 85z" />
    <glyph glyph-name="quotesingle" unicode="'" horiz-adv-x="278" 
d="M98 692l14 -246h54l15 246h-83z" />
    <glyph glyph-name="parenleft" unicode="(" horiz-adv-x="333" 
d="M257 -123q-22 71 -39 130t-29 111.5t-18.5 102.5t-6.5 103q0 47 6 97t22 119q16 72 31.5 123.5t27.5 88.5h-66q-13 -32 -31.5 -80.5t-39.5 -116.5q-17 -57 -29 -115t-12 -118q0 -55 11 -112.5t28 -115t38.5 -112.5t41.5 -105h65z" />
    <glyph glyph-name="parenright" unicode=")" horiz-adv-x="333" 
d="M76 752q22 -71 39 -130t29 -111.5t18.5 -102t6.5 -102.5q0 -47 -6 -97t-22 -119q-16 -72 -31.5 -123.5t-27.5 -89.5h66q13 32 31.5 81t39.5 117q17 57 29 115t12 118q0 55 -11 112.5t-28.5 114.5t-38.5 112t-41 105h-65z" />
    <glyph glyph-name="asterisk" unicode="*" 
d="M480 563l-171 -19l105 140l-67 37l-69 -156l-67 155l-66 -36l102 -140l-169 22v-73l166 14l-106 -139l68 -37l72 156l67 -158l65 40l-102 138l172 -19v75z" />
    <glyph glyph-name="plus" unicode="+" horiz-adv-x="584" 
d="M250 0h84v213h213v77h-213v213h-84v-213h-213v-77h213v-213z" />
    <glyph glyph-name="comma" unicode="," horiz-adv-x="278" 
d="M113 120l-64 -246h68l112 246h-116z" />
    <glyph glyph-name="hyphen" unicode="-" horiz-adv-x="333" 
d="M42 225h251v76h-251v-76z" />
    <glyph glyph-name="hyphen" unicode="&#xad;" horiz-adv-x="333" 
d="M42 225h251v76h-251v-76z" />
    <glyph glyph-name="period" unicode="." horiz-adv-x="278" 
d="M81 0h111v120h-111v-120z" />
    <glyph glyph-name="slash" unicode="/" horiz-adv-x="278" 
d="M-9 -16h66l233 729h-65z" />
    <glyph glyph-name="zero" unicode="0" 
d="M44 338q0 -93 14 -148t31 -89q11 -23 28.5 -44t40.5 -36.5t52 -25t64 -9.5q12 0 28 2t34.5 7.5t38 16t37.5 27.5q47 44 71.5 118t24.5 197q0 32 -3 71t-11.5 78t-24 75.5t-41.5 65t-63 45.5t-89 17q-55 0 -93.5 -20t-64.5 -52.5t-40.5 -73t-22 -81.5t-9.5 -78t-2 -63z
M140 343q0 46 4.5 96.5t18.5 91.5t41.5 68t72.5 27q39 0 65 -20.5t41.5 -57.5t21.5 -89t6 -114q0 -47 -5 -95.5t-19.5 -89t-41.5 -66t-70 -25.5q-39 0 -65 21t-41.5 58t-22 87t-6.5 108z" />
    <glyph glyph-name="one" unicode="1" 
d="M271 0h96v692h-89q-29 -25 -74 -54t-94 -55v-100q18 9 39.5 20.5t43 24.5t42 27t36.5 28v-583z" />
    <glyph glyph-name="two" unicode="2" 
d="M53 0h440v79h-329l121 115q7 7 25.5 26t38.5 40t38 41t26 29q28 36 44 61t23.5 44.5t9 35t1.5 32.5q0 55 -18.5 93.5t-48.5 62.5t-68.5 35t-78.5 11q-33 0 -73.5 -9.5t-76.5 -40.5q-23 -20 -35.5 -41t-18.5 -41.5t-8 -38.5t-2 -31h105q0 10 2 30t13 40t33.5 35.5
t64.5 15.5q37 0 59 -13t33.5 -31t15 -37t3.5 -32q0 -28 -10.5 -55t-40.5 -68q-23 -32 -50.5 -61.5t-56.5 -57.5l-181 -178v-91z" />
    <glyph glyph-name="three" unicode="3" 
d="M38 178q0 -11 1 -25.5t5 -30.5t12 -33.5t23 -33.5q33 -38 84 -55t106 -17q60 0 105 18t75 47.5t45 66t15 72.5q0 5 -2.5 29t-16 52.5t-44 53.5t-85.5 33q40 9 66.5 27.5t42.5 41.5t22.5 48t6.5 46q0 36 -14 69.5t-42.5 60t-70.5 42t-99 15.5q-21 0 -58 -5.5t-73 -24.5
t-63.5 -57t-29.5 -102h101q3 32 16 53t31 33.5t38.5 17.5t40.5 5q52 0 87 -25.5t35 -83.5q0 -42 -19 -67t-47.5 -37.5t-60.5 -15t-58 -0.5v-81q26 1 47.5 0.5t48.5 -5.5q19 -4 37 -13.5t32 -24.5t22.5 -36t8.5 -48q0 -23 -8 -45t-24.5 -39.5t-43 -28t-62.5 -10.5
q-64 0 -96 31.5t-31 81.5h-106z" />
    <glyph glyph-name="four" unicode="4" 
d="M340 0h96v150h101v81h-101v470h-108l-300 -432v-119h312v-150zM104 231l239 365v-365h-239z" />
    <glyph glyph-name="five" unicode="5" 
d="M56 164q2 -44 18.5 -78t44.5 -56.5t64.5 -34t78.5 -11.5q57 0 102.5 18t77.5 50.5t49.5 76t17.5 94.5q0 45 -13 86t-38.5 72.5t-64.5 50.5t-91 19q-30 0 -54 -7t-41.5 -17t-30 -21t-20.5 -19l13 224h303v81h-389l-18 -412h91q4 12 10 27t22 31t39.5 26t53.5 10
q60 0 95.5 -39t35.5 -110q0 -17 -4.5 -44t-18.5 -52.5t-41.5 -44t-72.5 -18.5q-20 0 -40 5.5t-36.5 17.5t-27 30.5t-11.5 44.5h-104z" />
    <glyph glyph-name="six" unicode="6" 
d="M510 528q0 10 -1 23t-4.5 27.5t-11 30.5t-20.5 31q-9 10 -23.5 21.5t-34.5 21.5t-47 16.5t-61 6.5q-55 0 -95 -18.5t-68.5 -49.5t-46.5 -71t-28 -83.5t-14 -87t-4 -81.5q0 -33 2.5 -67.5t9.5 -67.5t19.5 -64t31.5 -56q28 -36 74 -55.5t97 -19.5q45 0 87 15t74.5 45.5
t52.5 76t20 105.5q0 55 -17 96.5t-45.5 69.5t-66.5 42t-80 14q-38 0 -64.5 -9.5t-45.5 -23t-31 -28.5t-20 -27q7 139 42.5 204.5t110.5 65.5q16 0 34.5 -4.5t34 -16.5t26 -32t10.5 -50h103zM289 61q-29 0 -53.5 11.5t-42 32.5t-27.5 49.5t-10 62.5q0 30 8.5 57.5t25.5 49.5
t43 35t61 13q43 0 68.5 -17t39 -41.5t17.5 -51t4 -44.5q0 -42 -12 -72t-31.5 -49t-43.5 -27.5t-47 -8.5z" />
    <glyph glyph-name="seven" unicode="7" 
d="M35 609h356l-266 -609h113l254 608v84h-457v-83z" />
    <glyph glyph-name="eight" unicode="8" 
d="M190 365q-23 -8 -49 -18t-51 -35q-26 -25 -39.5 -58.5t-13.5 -68.5q0 -40 16.5 -76.5t44.5 -62.5q38 -35 86 -46.5t93 -11.5q64 0 109.5 18.5t74 47.5t41.5 65t13 72q0 50 -18 82t-42.5 51.5t-50 28.5t-40.5 13q36 7 63 22.5t44 37t25.5 46.5t8.5 51q0 40 -15.5 73.5
t-45 58.5t-72 39t-97.5 14q-68 0 -111.5 -21t-68.5 -50.5t-34.5 -62t-9.5 -55.5q0 -52 35 -95.5t104 -58.5zM409 521q0 -51 -38 -81.5t-95 -30.5q-27 0 -50.5 8t-40.5 23t-27 35.5t-10 45.5q0 26 10 47t27.5 35.5t41.5 22.5t52 8q63 0 96.5 -32.5t33.5 -80.5zM138 194
q0 27 10 51t28.5 41.5t44.5 27.5t58 10q60 0 98 -34.5t38 -92.5q0 -20 -6 -42.5t-21.5 -42t-42 -32.5t-68.5 -13q-39 0 -65.5 12t-43 31t-23.5 41.5t-7 42.5z" />
    <glyph glyph-name="nine" unicode="9" 
d="M46 165q1 -54 20.5 -89t49.5 -55.5t66.5 -28.5t71.5 -8q63 0 107 20t72 52t43.5 72t23 81t8.5 77.5t1 62.5q0 71 -5.5 112.5t-14.5 73.5q-15 52 -41.5 85.5t-57.5 52t-63.5 25.5t-60.5 7q-41 0 -80.5 -12.5t-71 -39.5t-51 -69t-19.5 -102q0 -54 17.5 -95t46.5 -68.5
t67.5 -41.5t79.5 -14q20 0 42 4t42.5 14t38.5 26.5t32 42.5q2 -41 0.5 -90.5t-15.5 -93.5t-45 -73.5t-88 -29.5q-59 0 -85 28.5t-26 73.5h-105zM399 480q0 -63 -33.5 -102t-92.5 -39q-57 0 -94 37t-37 105q0 31 8 58t23.5 47t39 32t53.5 12q25 0 49 -9.5t43 -28t30 -47
t11 -65.5z" />
    <glyph glyph-name="colon" unicode=":" horiz-adv-x="278" 
d="M83 389h111v118h-111v-118zM83 0h111v118h-111v-118z" />
    <glyph glyph-name="semicolon" unicode=";" horiz-adv-x="278" 
d="M95 387h116v120h-116v-120zM113 120l-64 -246h68l112 246h-116z" />
    <glyph glyph-name="semicolon" unicode="&#x37e;" horiz-adv-x="278" 
d="M95 387h116v120h-116v-120zM113 120l-64 -246h68l112 246h-116z" />
    <glyph glyph-name="less" unicode="&#x3c;" horiz-adv-x="584" 
d="M37 210l510 -200v87l-406 154l406 155v86l-510 -200v-82z" />
    <glyph glyph-name="equal" unicode="=" horiz-adv-x="584" 
d="M37 314h510v77h-510v-77zM37 111h510v78h-510v-78z" />
    <glyph glyph-name="greater" unicode="&#x3e;" horiz-adv-x="584" 
d="M547 210v82l-510 200v-86l406 -155l-406 -154v-87z" />
    <glyph glyph-name="question" unicode="?" horiz-adv-x="500" 
d="M74 625q51 21 87.5 24.5t47.5 3.5q10 0 32 -2t45 -12t40.5 -31t17.5 -59q0 -22 -7 -41t-21 -39.5t-35 -44t-50 -53.5q-20 -21 -30.5 -33.5t-15 -22.5t-5.5 -20t-1 -25v-106h84v106q0 10 1.5 16.5t6.5 14.5l8 8.5t18 18.5l19 19l11 11q31 31 54 55.5t38 46.5t22 45t7 53
q0 32 -12 62.5t-33 53.5q-30 32 -77 47t-110 15q-54 0 -89 -7.5t-53 -13.5v-90zM171 0h104v102h-104v-102z" />
    <glyph glyph-name="at" unicode="@" horiz-adv-x="1015" 
d="M653 549l-18 -64q-3 10 -8 22t-18 24q-18 19 -42.5 26t-47.5 7q-45 0 -81.5 -22t-62.5 -56t-40 -76.5t-14 -82.5q0 -71 37.5 -111t96.5 -40q34 0 58.5 12t41 28t26 32.5t14.5 25.5q-2 -5 -3 -12t-1 -16q0 -35 24.5 -52.5t55.5 -17.5q36 0 72 18.5t65.5 53t48 83
t18.5 109.5q0 76 -28 132.5t-74.5 94t-107 56t-124.5 18.5q-75 0 -147 -25t-128 -74t-90.5 -122t-34.5 -168q0 -83 28.5 -151t79.5 -116.5t121.5 -75t154.5 -26.5q94 0 165.5 29t137.5 77l-25 33q-56 -40 -121.5 -67.5t-153.5 -27.5q-74 0 -136.5 22.5t-108 64.5t-71 101.5
t-25.5 133.5q0 83 29 148t77.5 109.5t112.5 67.5t135 23q56 0 108 -15.5t91.5 -46.5t63.5 -78.5t24 -111.5q0 -49 -13 -89t-33 -69t-44.5 -45t-48.5 -16q-5 0 -12.5 1t-14.5 5.5t-12 12.5t-5 22q0 16 5.5 36.5t10.5 39.5l61 206h-69zM607 436q0 -16 -7.5 -50.5t-23 -70
t-40.5 -62.5t-61 -27q-38 0 -55.5 28t-17.5 68q0 28 9.5 62t27 63t42 48.5t54.5 19.5q10 0 23 -3.5t23.5 -12.5t18 -24.5t7.5 -38.5z" />
    <glyph glyph-name="A" unicode="A" horiz-adv-x="722" 
d="M9 0h103l78 188h335l78 -188h109l-292 722h-107zM362 623l133 -354h-273z" />
    <glyph glyph-name="B" unicode="B" horiz-adv-x="667" 
d="M95 0h263q43 0 84 4t79 29q9 6 23.5 18.5t29 32.5t24.5 48t10 65q0 52 -16.5 85t-39.5 52.5t-47.5 28.5t-40.5 14q13 5 34 14.5t40.5 27.5t33.5 47t14 74q0 43 -14 74.5t-37 54.5q-17 16 -35 26.5t-40 16.5t-48 8t-59 2h-258v-722zM192 640h144q21 0 46 -1.5t47.5 -12
t37.5 -32.5t15 -63q0 -43 -18.5 -66t-43.5 -33.5t-50 -12.5t-38 -2h-140v223zM192 331h175q66 0 102 -35.5t36 -89.5q0 -31 -11 -54.5t-30.5 -39t-45 -23.5t-55.5 -8h-171v250z" />
    <glyph glyph-name="C" unicode="C" horiz-adv-x="667" 
d="M630 527q-5 61 -31.5 101t-64.5 63t-81.5 32t-81.5 9q-64 0 -112.5 -17.5t-83.5 -47t-58 -68t-37 -80.5t-19.5 -85t-5.5 -81q0 -53 11.5 -116t44.5 -118.5t92.5 -92.5t154.5 -37q46 0 92 11.5t83.5 36t63 62.5t31.5 91h-110q-2 -13 -8.5 -34t-26.5 -42
q-23 -24 -53.5 -33.5t-63.5 -9.5q-62 0 -101.5 25t-62.5 65.5t-31.5 91t-8.5 101.5q0 45 7.5 97t29.5 97t62.5 74.5t105.5 29.5q52 0 82.5 -16t46 -37t20.5 -42t7 -30h107z" />
    <glyph glyph-name="D" unicode="D" horiz-adv-x="722" 
d="M88 0h203q40 0 76.5 1t69.5 6.5t63 17.5t57 34q21 16 42 42.5t38.5 63.5t28.5 84t11 106q0 75 -20.5 145.5t-68.5 127.5q-30 35 -65.5 54t-73.5 28t-77 10.5t-75 1.5h-209v-722zM188 639h120q66 0 111.5 -12.5t80.5 -50.5q25 -28 39.5 -63t21 -67.5t8 -58.5t1.5 -36
q0 -16 -2 -44t-11 -60.5t-28.5 -65.5t-53.5 -59q-36 -27 -86.5 -33.5t-102.5 -6.5h-98v557z" />
    <glyph glyph-name="E" unicode="E" horiz-adv-x="611" 
d="M76 0h461v88h-361v240h336v84h-336v225h353v85h-453v-722z" />
    <glyph glyph-name="F" unicode="F" 
d="M95 0h102v328h309v84h-309v225h328v85h-430v-722z" />
    <glyph glyph-name="G" unicode="G" horiz-adv-x="778" 
d="M686 542q-1 10 -2.5 23t-6 28t-14 31t-25.5 33q-26 26 -54.5 41.5t-56.5 23.5t-54.5 10t-47.5 2q-14 0 -37 -1t-50.5 -6.5t-57 -15.5t-56.5 -28q-51 -35 -82 -81t-47 -93.5t-21 -90t-5 -69.5q0 -77 23.5 -149t77.5 -126q38 -39 100 -64.5t162 -25.5q46 0 86 5t73 12
t57.5 14.5t40.5 12.5v356h-265v-83h165v-214q-17 -5 -56 -14t-101 -9q-27 0 -54 3.5t-51.5 11.5t-46.5 22t-40 34q-20 24 -32.5 53.5t-20 60.5t-10.5 60.5t-3 52.5q0 25 3 55t11.5 60.5t23.5 60.5t39 56q29 32 70.5 46.5t92.5 14.5q74 0 114.5 -31t48.5 -82h109z" />
    <glyph glyph-name="H" unicode="H" horiz-adv-x="722" 
d="M88 722v-722h100v326h343v-326h100v722h-100v-310h-343v310h-100z" />
    <glyph glyph-name="I" unicode="I" horiz-adv-x="278" 
d="M88 0h100v722h-100v-722z" />
    <glyph glyph-name="J" unicode="J" 
d="M21 196q0 -11 1 -26.5t4.5 -33t10.5 -36.5t20 -36q19 -25 42.5 -39.5t47.5 -22.5t46 -10.5t36 -2.5q45 0 85.5 13.5t71 39.5t49 64t18.5 88v528h-100v-501q0 -8 -0.5 -20t-2 -25.5t-5 -27t-9.5 -24.5q-16 -26 -42.5 -38.5t-57.5 -12.5q-38 0 -61 15t-32 29
q-11 17 -13 38.5t-3 40.5h-106z" />
    <glyph glyph-name="K" unicode="K" horiz-adv-x="667" 
d="M93 0h99v383l333 -383h140l-358 399l323 323h-137l-301 -316v316h-99v-722z" />
    <glyph glyph-name="L" unicode="L" 
d="M93 0h435v89h-336v633h-99v-722z" />
    <glyph glyph-name="M" unicode="M" horiz-adv-x="944" 
d="M90 0h97v646l228 -646h95l237 650v-650h98v722h-165l-209 -595l-204 595h-177v-722z" />
    <glyph glyph-name="N" unicode="N" horiz-adv-x="778" 
d="M95 0h91v613l367 -613h128v722h-92v-597l-355 597h-139v-722z" />
    <glyph glyph-name="O" unicode="O" horiz-adv-x="778" 
d="M59 356q0 -74 16.5 -141.5t54.5 -119t100.5 -82t154.5 -30.5q96 0 160.5 33t103 87.5t54.5 123.5t16 141q0 92 -23 161.5t-65 116.5t-102.5 71t-135.5 24q-25 0 -55.5 -4t-62 -14.5t-63.5 -29.5t-60 -49q-30 -32 -48 -69.5t-28 -75.5t-13.5 -75t-3.5 -68zM164 362
q0 55 10 108.5t36 94.5t70.5 66.5t113.5 25.5q62 0 104 -22t67.5 -60.5t36.5 -91.5t11 -114q0 -18 -2 -47t-8.5 -62t-19.5 -66t-35 -60q-32 -38 -73.5 -52t-86.5 -14q-43 0 -86 14t-74 52q-38 47 -51 107.5t-13 120.5z" />
    <glyph glyph-name="P" unicode="P" horiz-adv-x="611" 
d="M88 0h100v321h117q49 0 83.5 4.5t60 12.5t43 19.5t31.5 25.5q57 57 57 141q0 41 -13 76.5t-40 63.5q-18 20 -39 31.5t-45 17.5t-52 7.5t-61 1.5h-242v-722zM188 641h140q19 0 44.5 -2t48 -12.5t38 -33.5t15.5 -65q0 -44 -17 -69t-42 -37t-54 -14.5t-54 -2.5h-119v236z
" />
    <glyph glyph-name="Q" unicode="Q" horiz-adv-x="778" 
d="M754 79h-53q-50 0 -80.5 -5t-48.5 -9q46 36 72.5 79.5t39.5 86t16 80.5t3 64q0 65 -15 130t-51.5 117t-96.5 84.5t-150 32.5q-69 0 -132.5 -23.5t-109.5 -74.5q-28 -31 -45.5 -67.5t-27.5 -74t-13.5 -74.5t-3.5 -69q0 -96 24.5 -166t66.5 -115.5t98.5 -67.5t121.5 -22
q9 0 23.5 1t32.5 2.5t37.5 3t37.5 3.5q18 1 39 2t40.5 2t34.5 1h20h120v79zM164 354q0 20 2 50t9.5 63.5t22 67t38.5 60.5t59.5 44t85.5 17q106 0 163 -79t57 -219q0 -19 -2 -48t-9.5 -62t-22 -66t-39.5 -59.5t-61 -43t-88 -16.5q-65 0 -106.5 28.5t-65.5 72t-33.5 94.5
t-9.5 96z" />
    <glyph glyph-name="R" unicode="R" horiz-adv-x="667" 
d="M86 0h99v326h126q45 0 74 -6.5t46 -22t25 -41.5t13 -65q3 -21 6 -46.5t7 -51.5t9 -50.5t11 -42.5h107q-11 30 -17.5 57.5t-11.5 54.5t-8.5 55l-7.5 60q-4 34 -12 57.5t-21 39t-32 25.5t-45 17q17 5 39.5 14.5t45.5 32.5q24 24 37.5 57t13.5 71q0 44 -19.5 82.5
t-60.5 64.5q-20 13 -43 20t-46 10t-43 3.5t-34 0.5h-258v-722zM183 638h158q15 0 39.5 -2t47.5 -13t40 -34.5t17 -67.5q0 -23 -5.5 -39t-13.5 -27.5t-16.5 -18t-13.5 -9.5q-10 -6 -24.5 -9.5t-29 -5t-26.5 -1.5h-15h-158v227z" />
    <glyph glyph-name="S" unicode="S" horiz-adv-x="667" 
d="M56 211q0 -13 1 -30t5 -36t12.5 -39.5t23.5 -40.5q21 -27 51 -43.5t61.5 -25t61 -11t50.5 -2.5q69 0 122.5 17t89.5 47.5t54.5 71.5t18.5 89q0 11 -2 29t-9 38t-21.5 40t-39.5 37q-16 10 -30 17t-37.5 14.5t-62.5 17.5t-103 27q-33 8 -57.5 16.5t-40.5 20.5t-24 29t-8 41
q0 54 42.5 85.5t117.5 31.5q27 0 53 -4.5t47.5 -16.5t35.5 -33.5t16 -55.5h104q-1 11 -2 25.5t-5.5 30.5t-13 33t-23.5 34q-22 24 -49.5 38t-55.5 21.5t-54 9.5t-44 2q-51 0 -100.5 -12.5t-88 -38t-62.5 -65.5t-24 -95q0 -36 15.5 -74t59.5 -68q14 -9 31 -16.5t40 -14.5
t53.5 -15t71.5 -18q38 -9 68.5 -18t52.5 -22t33.5 -32.5t11.5 -49.5q0 -14 -5.5 -35.5t-23 -42.5t-51 -36t-89.5 -15q-62 0 -97 15.5t-51.5 37.5t-20.5 46.5t-5 43.5h-104z" />
    <glyph glyph-name="T" unicode="T" horiz-adv-x="611" 
d="M362 0v637h242v85h-583v-85h242v-637h99z" />
    <glyph glyph-name="U" unicode="U" horiz-adv-x="778" 
d="M93 722v-440q0 -41 3.5 -70t9.5 -50t13.5 -35.5t15.5 -26.5q25 -36 58.5 -58.5t68.5 -35t68.5 -17t59.5 -4.5q19 0 48 3t61.5 13.5t64.5 30.5t59 53q22 27 34 55t17.5 53.5t6.5 47t1 36.5v445h-97v-443q0 -20 -3 -54t-21.5 -68t-58 -58.5t-112.5 -24.5q-19 0 -40.5 2.5
t-43.5 10.5t-43 21.5t-38 36.5q-6 8 -11.5 18.5t-10 25.5t-7.5 36t-3 50v447h-100z" />
    <glyph glyph-name="V" unicode="V" horiz-adv-x="667" 
d="M647 722h-101l-216 -617l-205 617h-111l257 -722h110z" />
    <glyph glyph-name="W" unicode="W" horiz-adv-x="1000" 
d="M8 722l205 -722h108l179 617l167 -617h111l214 722h-98l-164 -599l-163 599h-124l-172 -594l-156 594h-107z" />
    <glyph glyph-name="X" unicode="X" horiz-adv-x="722" 
d="M49 722l250 -344l-280 -378h121l220 310l215 -310h126l-270 376l257 346h-121l-195 -278l-195 278h-128z" />
    <glyph glyph-name="Y" unicode="Y" horiz-adv-x="667" 
d="M289 0h101v279l282 443h-112l-216 -354l-213 354h-124l282 -438v-284z" />
    <glyph glyph-name="Z" unicode="Z" horiz-adv-x="611" 
d="M35 0h543v88h-428l421 535v99h-525v-88h406l-417 -534v-100z" />
    <glyph glyph-name="bracketleft" unicode="[" horiz-adv-x="333" 
d="M102 -125h173v53h-94v769h94v53h-173v-875z" />
    <glyph glyph-name="backslash" unicode="\" horiz-adv-x="278" 
d="M290 -16l-233 729h-66l234 -729h65z" />
    <glyph glyph-name="bracketright" unicode="]" horiz-adv-x="333" 
d="M60 -125h174v875h-174v-53h95v-769h-95v-53z" />
    <glyph glyph-name="asciicircum" unicode="^" horiz-adv-x="584" 
d="M82 271h86l122 318l126 -318h86l-172 421h-76z" />
    <glyph glyph-name="underscore" unicode="_" horiz-adv-x="500" 
d="M0 -125h500v50h-500v-50z" />
    <glyph glyph-name="grave" unicode="`" horiz-adv-x="278" 
d="M2 740l135 -144h62l-84 144h-113z" />
    <glyph glyph-name="a" unicode="a" 
d="M479 0q-3 19 -4.5 40t-2 39t-1 31t-0.5 16l4 240q0 17 -2.5 35.5t-14.5 41.5q-10 19 -29 33t-43 23t-51.5 13.5t-54.5 4.5q-20 0 -42.5 -2.5t-44 -8.5t-41.5 -16.5t-34 -26.5q-22 -26 -27.5 -50.5t-7.5 -44.5h94q0 7 2.5 21.5t12.5 28.5t30 24.5t56 10.5q20 0 46.5 -7
t40.5 -26q7 -8 10.5 -18t5 -22.5t2 -30t0.5 -40.5q-22 2 -36 2.5t-32 0.5q-15 0 -36.5 -1t-45.5 -4.5t-48 -10t-44 -17.5q-28 -16 -45 -35.5t-26.5 -39t-13 -38.5t-3.5 -34q0 -31 11.5 -58t34 -47t55.5 -31.5t76 -11.5q16 0 35.5 2.5t40.5 12t41.5 27.5t37.5 49q0 -20 2 -38
t7 -37h85zM383 244q-1 -26 -2 -45.5t-3 -34.5t-6.5 -27t-12.5 -25q-35 -54 -107 -54q-32 0 -52 9t-31.5 22.5t-16 28.5t-4.5 27q0 38 23 59t53.5 30.5t60.5 11t44 1.5q17 0 29 -0.5t25 -2.5z" />
    <glyph glyph-name="b" unicode="b" horiz-adv-x="611" 
d="M182 722h-94v-632l-2 -90h91l2 76q8 -11 18 -24t31 -27q32 -22 63 -27t49 -5q52 0 99 21.5t77 64.5q19 25 33.5 67.5t14.5 115.5q0 41 -5.5 71.5t-14.5 53t-19.5 38t-19.5 26.5q-35 39 -78 51.5t-81 12.5q-43 0 -72 -10t-48 -24t-29 -28.5t-15 -23.5v293zM465 256
q0 -31 -6.5 -65t-22.5 -63t-44.5 -48t-71.5 -19q-35 0 -59 12t-39.5 30t-24 40.5t-12.5 43.5t-4.5 38.5t-0.5 25.5t0.5 26t4.5 40t13 46t25 43.5t40.5 32t60.5 12.5q49 0 77 -23.5t42.5 -55.5t18 -64.5t3.5 -51.5z" />
    <glyph glyph-name="c" unicode="c" horiz-adv-x="500" 
d="M469 341q-2 21 -8 50.5t-34 61.5q-17 21 -38.5 33t-43 18.5t-41 8.5t-31.5 2q-38 0 -78 -13t-73.5 -44t-55 -83.5t-21.5 -130.5q0 -39 5 -69t13.5 -53t19.5 -40t22 -30q20 -22 43.5 -35t46 -19.5t42.5 -8.5t33 -2q46 0 83 14.5t63 39t40.5 57t16.5 69.5h-95
q-1 -18 -7 -37.5t-18.5 -35.5t-33 -26t-50.5 -10q-38 0 -62 16.5t-38 44.5t-19.5 63.5t-5.5 74.5q0 14 2 45.5t14 63.5t38.5 56t75.5 24q34 0 53.5 -13t29.5 -30.5t13 -35t4 -26.5h95z" />
    <glyph glyph-name="d" unicode="d" horiz-adv-x="611" 
d="M436 434q-5 8 -14.5 22t-27.5 28t-46 24.5t-68 10.5q-44 0 -85 -16t-72.5 -49.5t-50.5 -85t-19 -123.5q0 -83 24.5 -133t58.5 -77t71 -36t62 -9q26 0 59.5 8t64.5 29q20 14 29.5 28t15.5 25l2 -80h94q-1 10 -1.5 22t-1 23.5t-1 21t-0.5 13.5v641h-94v-287zM439 258
q0 -15 -2.5 -48t-16 -67.5t-44 -60.5t-85.5 -26q-43 0 -70 17.5t-42 45t-20.5 62t-5.5 67.5q0 8 0.5 26.5t4.5 41t12.5 46t23.5 43t38.5 32t58.5 12.5q40 0 67.5 -15.5t42.5 -35.5q16 -20 27 -52.5t11 -87.5z" />
    <glyph glyph-name="e" unicode="e" 
d="M506 234v49t-5.5 60.5t-18.5 62t-37 55t-62.5 39.5t-94.5 15q-11 0 -27 -1t-34.5 -5t-38 -11t-37.5 -20q-59 -41 -79 -101.5t-20 -134.5q0 -119 57 -188t176 -69q38 0 66.5 7t49.5 17t35 22t22 21q27 29 34 57.5t9 47.5h-94q-6 -54 -39 -79t-79 -25q-39 0 -66.5 13.5
t-45 38t-25.5 57.5t-7 72h361zM149 300q1 42 14 70t32.5 45.5t43.5 25t47 7.5q43 0 68 -16.5t37.5 -39.5t15.5 -48.5t3 -43.5h-261z" />
    <glyph glyph-name="f" unicode="f" horiz-adv-x="333" 
d="M339 727q-15 2 -36 4.5t-41 2.5q-49 0 -79.5 -15.5t-46.5 -39.5q-6 -10 -10.5 -20t-6.5 -23.5t-3 -32t-1 -44.5v-57h-99v-68h99v-434h93v434h117v68h-117v79q0 13 1 26t8.5 23.5t22.5 17t44 6.5q14 0 28.5 -0.5t26.5 -1.5v75z" />
    <glyph glyph-name="g" unicode="g" horiz-adv-x="611" 
d="M78 -39q1 -17 3 -35.5t9 -36.5t20 -34.5t36 -28.5t58 -19.5t85 -7.5q26 0 56 3t58.5 12t53.5 27t41 48q7 14 12 31.5t7.5 41.5t3.5 57t1 78l1 314l2 91h-91l-1 -69q-8 10 -19 23t-29.5 25t-45 20t-64.5 8q-46 0 -86.5 -15.5t-71 -47t-48 -79t-17.5 -111.5q0 -51 12.5 -99
t44.5 -86q16 -20 35.5 -32t40 -18.5t41 -9t37.5 -2.5q11 0 32.5 1.5t46 10t48 25.5t38.5 48q0 -51 -2.5 -93.5t-15 -73t-39.5 -47.5t-76 -17q-33 0 -55 7.5t-35.5 20.5t-19.5 31t-7 39h-100zM287 79q-43 0 -70 17t-42 43.5t-20.5 58t-5.5 60.5q0 24 4.5 55.5t18.5 60
t40.5 48.5t71.5 20q32 0 60.5 -12t47.5 -32t29 -48.5t10 -76.5q0 -34 -2.5 -57t-7 -39t-11 -27t-13.5 -21q-17 -23 -42.5 -36.5t-67.5 -13.5z" />
    <glyph glyph-name="h" unicode="h" horiz-adv-x="611" 
d="M88 0h95v266q0 23 2 54t14 52q5 9 14 20.5t23.5 22t34.5 17.5t46 7q40 0 62 -16t32.5 -38.5t12 -46.5t1.5 -41v-297h96v314q0 27 -1.5 46t-3.5 32.5t-5 22t-7 16.5q-11 23 -29.5 38.5t-40.5 24.5t-45 13t-43 4q-53 0 -96.5 -21.5t-66.5 -61.5v293h-95v-721z" />
    <glyph glyph-name="i" unicode="i" horiz-adv-x="278" 
d="M79 617h113v103h-113v-103zM89 0h94v502h-94v-502z" />
    <glyph glyph-name="j" unicode="j" horiz-adv-x="278" 
d="M82 616h114v104h-114v-104zM-1 -193q20 -2 34.5 -3t23.5 -1q47 0 73 16.5t38 40.5t14.5 49.5t2.5 43.5v549h-94v-538q0 -30 -4 -48t-14.5 -28t-28 -12.5t-45.5 -1.5v-67z" />
    <glyph glyph-name="k" unicode="k" horiz-adv-x="500" 
d="M81 0h93v271l201 -271h123l-225 289l212 213h-123l-188 -205v430h-93v-727z" />
    <glyph glyph-name="l" unicode="l" horiz-adv-x="278" 
d="M90 0h94v721h-94v-721z" />
    <glyph glyph-name="m" unicode="m" horiz-adv-x="944" 
d="M88 0h94v285q0 24 3 52t19 50q4 6 13 15t22.5 18t32 15.5t42.5 6.5q56 0 83 -31.5t27 -78.5v-332h95v281q0 8 0.5 21.5t2.5 29t6.5 30.5t12.5 27q5 7 13.5 16t22 17t31 14t40.5 6q36 0 60 -13.5t36 -30.5q7 -10 12 -26.5t5 -49.5v-322h95v337q0 55 -18.5 90t-46.5 54.5
t-60 26.5t-59 7q-42 0 -71 -11t-48.5 -26t-31.5 -31t-18 -26q-7 14 -17.5 30.5t-29.5 30.5t-47 23.5t-70 9.5q-16 0 -36 -2.5t-41.5 -11t-42.5 -25.5t-39 -47v73h-94l2 -67v-435z" />
    <glyph glyph-name="n" unicode="n" horiz-adv-x="611" 
d="M91 0h94v289q0 38 11 66t29 47t41.5 28t49.5 9q24 0 47.5 -8.5t41.5 -25.5q17 -17 22 -39t5 -47v-319h96v341q0 58 -22 92t-52 51.5t-60.5 22.5t-47.5 5q-43 0 -72 -11.5t-47.5 -26.5t-28 -30t-13.5 -23l-1 81h-94l1 -58v-444z" />
    <glyph glyph-name="o" unicode="o" horiz-adv-x="611" 
d="M51 245q0 -55 15 -103t46 -83t77.5 -55.5t108.5 -20.5q64 0 112 21.5t79.5 58t47 85.5t15.5 104q0 39 -10 85t-37.5 85.5t-75.5 66t-123 26.5q-74 0 -123 -25t-78.5 -64t-41.5 -87t-12 -94zM149 251q0 59 16 97t40 59.5t51 30t50 8.5q66 0 106 -48.5t40 -142.5
q0 -57 -14 -95.5t-35.5 -62t-48.5 -34t-54 -10.5q-40 0 -68.5 16.5t-47 44t-27 63t-8.5 74.5z" />
    <glyph glyph-name="p" unicode="p" horiz-adv-x="611" 
d="M85 -193h93v249q20 -33 59.5 -54t94.5 -21q45 0 86.5 15.5t73 48.5t50.5 84t19 121t-18 119t-47 80.5t-67.5 46t-78.5 14.5q-15 0 -37 -3t-46 -13t-47 -27.5t-41 -47.5l-2 83h-95q1 -18 1.5 -30t1 -21t0.5 -16v-15v-613zM175 236q0 17 2.5 51t16.5 68t44.5 59.5
t86.5 25.5q42 0 68.5 -16t42 -42t21.5 -59t6 -67q0 -14 -1.5 -33t-5.5 -40.5t-12.5 -43.5t-21.5 -40q-12 -17 -26.5 -26.5t-29.5 -14.5t-28 -6.5t-22 -1.5q-50 0 -78 20.5t-42 49.5t-17.5 61t-3.5 55z" />
    <glyph glyph-name="q" unicode="q" horiz-adv-x="611" 
d="M434 502l-3 -83q-8 13 -21.5 29t-34 29.5t-49 23t-66.5 9.5q-40 0 -78 -14t-67.5 -45t-47.5 -80t-18 -118q0 -70 18.5 -121t50 -84.5t73 -50t87.5 -16.5q9 0 21.5 1t27.5 4t31.5 9.5t32.5 17.5q17 11 26 22.5t15 20.5v-249h95v613v17q0 11 0.5 23t1 23t0.5 19h-95z
M435 241q0 -38 -5.5 -72.5t-20.5 -60.5t-42.5 -42t-70.5 -16q-35 0 -63 12.5t-45 36.5q-14 19 -22 41.5t-12 44t-5.5 41t-1.5 33.5q0 15 2.5 45t15.5 60t40.5 53t78.5 23q38 0 63.5 -12t42.5 -30.5t26 -41.5t13.5 -45t5 -41t0.5 -29z" />
    <glyph glyph-name="r" unicode="r" horiz-adv-x="389" 
d="M93 0h95v267q0 32 6 60t21 48.5t41.5 32t68.5 11.5h15t12 -1q12 -2 18 -4v92q-12 1 -28 1t-37 -3q-16 -2 -34 -8t-35 -17.5t-30.5 -29.5t-20.5 -44l-2 97h-95q2 -25 3.5 -50.5t1.5 -51.5v-400z" />
    <glyph glyph-name="s" unicode="s" horiz-adv-x="500" 
d="M43 149q0 -45 16 -76.5t43.5 -50.5t63 -27.5t73.5 -8.5q39 0 77.5 7t71.5 27q28 17 48 51t20 76q0 24 -8.5 48.5t-29.5 44.5q-11 10 -24 17.5t-34.5 15t-55 16t-85.5 20.5q-10 3 -22 6.5t-23 10.5t-18.5 18.5t-7.5 28.5q0 27 14 41.5t32 21.5t34.5 8t21.5 1q13 0 30 -2
t32.5 -10.5t25.5 -25t9 -44.5h96q0 16 -1.5 34t-11.5 39q-11 22 -32 37t-46 24t-52 13t-51 4q-44 0 -80 -11t-61.5 -30.5t-40 -48t-14.5 -62.5q0 -39 15.5 -64t41.5 -41t61.5 -26t74.5 -19q28 -6 49 -12t34.5 -13.5t20 -19.5t6.5 -30q0 -26 -16 -47q-15 -19 -37 -25.5
t-51 -6.5q-34 0 -55.5 9t-34 22.5t-16.5 29.5t-4 30h-99z" />
    <glyph glyph-name="t" unicode="t" horiz-adv-x="333" 
d="M11 435h89v-335q0 -62 31 -84.5t96 -22.5q26 0 45.5 2t32.5 4v73q-6 -2 -18.5 -3.5t-26.5 -1.5q-25 0 -38.5 7t-20 17t-7.5 22t-1 21v301h112v69h-112v135l-93 -30v-105h-89v-69z" />
    <glyph glyph-name="u" unicode="u" horiz-adv-x="611" 
d="M78 502v-337q0 -37 11 -68.5t33.5 -54t56.5 -35t81 -12.5q40 0 68 9.5t46 23t28.5 29.5t17.5 29l2 -86h98q0 10 -0.5 25t-1 29t-1 25t-0.5 15v408h-97v-284q0 -19 -2.5 -45t-18.5 -49q-20 -30 -51.5 -43t-66.5 -13q-36 0 -57 10.5t-32.5 26.5t-14.5 36t-3 38v323h-96z
" />
    <glyph glyph-name="v" unicode="v" 
d="M222 0h95l220 502h-104l-156 -398l-160 398h-105z" />
    <glyph glyph-name="w" unicode="w" horiz-adv-x="833" 
d="M12 502l166 -502h111l131 413l118 -413h108l177 502h-97l-126 -396l-114 396h-123l-127 -400l-121 400h-103z" />
    <glyph glyph-name="x" unicode="x" 
d="M335 257l196 245h-111l-140 -189l-134 189h-123l188 -239l-199 -263h110l142 201l143 -201h124z" />
    <glyph glyph-name="y" unicode="y" 
d="M537 502h-102l-160 -396l-157 396h-106l209 -500l-76 -192h97l72 187z" />
    <glyph glyph-name="z" unicode="z" horiz-adv-x="444" 
d="M30 0h375v73h-277l277 349v80h-361v-71h254l-268 -334v-97z" />
    <glyph glyph-name="braceleft" unicode="{" horiz-adv-x="334" 
d="M-1 287q49 -6 76 -21t39.5 -35.5t14.5 -44.5t2 -48v-34q0 -44 4.5 -83.5t24.5 -70t61 -51t114 -24.5v51q-46 4 -71 20t-36.5 39.5t-13.5 50.5t-2 52v31q0 30 -2 61.5t-15 59t-40 47.5t-76 26q50 6 77 26.5t39.5 48.5t14.5 59t2 59v26q0 26 2 54t13.5 52t36.5 40.5
t71 20.5v51q-77 -4 -118 -26.5t-60.5 -55.5t-22.5 -73.5t-3 -80.5v-27q0 -37 -5 -66t-35 -51q-25 -19 -53 -25t-39 -7v-51z" />
    <glyph glyph-name="bar" unicode="|" horiz-adv-x="260" 
d="M89 -214h83v1000h-83v-1000z" />
    <glyph glyph-name="braceright" unicode="}" horiz-adv-x="334" 
d="M335 338q-50 6 -76.5 21t-39 35.5t-14.5 44.5t-2 48v34q0 43 -4.5 83t-24.5 70.5t-61 50.5t-114 25v-51q46 -4 71 -20t36.5 -39.5t13.5 -50.5t2 -52v-31q0 -30 2 -61.5t15 -58.5t39.5 -47t76.5 -26q-50 -7 -77 -27.5t-39.5 -48.5t-14.5 -59t-2 -59v-26q0 -26 -2 -54
t-13.5 -52t-36.5 -40.5t-71 -20.5v-51q76 4 117.5 26.5t61 55.5t22.5 73.5t3 80.5v27q0 37 5 66t35 51q25 19 53 25t39 7v51z" />
    <glyph glyph-name="asciitilde" unicode="~" horiz-adv-x="584" 
d="M82 174q3 21 11 35t18.5 23t22 13t21.5 4q7 0 14 -1t18 -4t28.5 -9t47.5 -16q17 -6 39 -13t44 -13.5t42.5 -10.5t35.5 -4t35.5 5t40.5 21t36 45.5t21 78.5h-54q-8 -43 -29.5 -58t-43.5 -15q-9 0 -17.5 1t-21.5 4.5t-33.5 10.5t-53.5 18q-37 12 -59.5 19t-37.5 11t-25 5
t-23 1q-25 0 -48 -9.5t-44 -34.5q-20 -25 -27.5 -50t-12.5 -57h55z" />
    <glyph glyph-name="quotesinglbase" horiz-adv-x="278" 
d="M111 100l-62 -235h67l110 235h-115z" />
    <glyph glyph-name="quotesinglbase" unicode="&#x201a;" horiz-adv-x="278" 
d="M111 100l-62 -235h67l110 235h-115z" />
    <glyph glyph-name="quotedblbase" 
d="M164 100l-62 -235h67l110 235h-115zM351 100l-63 -235h67l110 235h-114z" />
    <glyph glyph-name="quotedblbase" unicode="&#x201e;" 
d="M164 100l-62 -235h67l110 235h-115zM351 100l-63 -235h67l110 235h-114z" />
    <glyph glyph-name="ellipsis" unicode="&#x85;" horiz-adv-x="1000" 
d="M117 0h100v119h-100v-119zM450 0h100v119h-100v-119zM783 0h100v119h-100v-119z" />
    <glyph glyph-name="ellipsis" unicode="&#x2026;" horiz-adv-x="1000" 
d="M117 0h100v119h-100v-119zM450 0h100v119h-100v-119zM783 0h100v119h-100v-119z" />
    <glyph glyph-name="dagger" 
d="M480 553h-167v169h-79v-169h-170v-74h170v-479h79v479h167v74z" />
    <glyph glyph-name="dagger" unicode="&#x2020;" 
d="M480 553h-167v169h-79v-169h-170v-74h170v-479h79v479h167v74z" />
    <glyph glyph-name="daggerdbl" 
d="M235 556h-170v-75h170v-238h-170v-74h170v-169h80v169h170v74h-170v238h170v75h-170v166h-80v-166z" />
    <glyph glyph-name="daggerdbl" unicode="&#x2021;" 
d="M235 556h-170v-75h170v-238h-170v-74h170v-169h80v169h170v74h-170v238h170v75h-170v166h-80v-166z" />
    <glyph glyph-name="perthousand" horiz-adv-x="1000" 
d="M301 545q0 74 -34.5 120.5t-110.5 46.5q-55 0 -85 -23.5t-43.5 -54t-16 -59.5t-2.5 -41q0 -74 34.5 -119t108.5 -45q43 0 71.5 14.5t45.5 39t24.5 56t7.5 65.5zM155 427q-25 0 -39.5 11.5t-22 28.5t-9.5 36t-2 35t2 36.5t9.5 38.5t22 30.5t40.5 12.5q22 0 35.5 -10
t21.5 -25.5t11 -35.5t3 -41q0 -18 -2.5 -38.5t-10 -38t-21.5 -29t-38 -11.5zM638 163q0 75 -35 121t-110 46q-55 0 -85 -23.5t-43.5 -54t-16 -60t-2.5 -40.5q0 -74 34.5 -119t108.5 -45q43 0 71.5 14.5t45.5 39t24.5 56t7.5 65.5zM492 45q-25 0 -40 11.5t-22.5 28t-9.5 36
t-2 35.5t2 36.5t9.5 38.5t22.5 30.5t40 12.5q22 0 36 -10t22 -25.5t11 -35.5t3 -41q0 -18 -2.5 -38.5t-10 -38t-21.5 -29t-38 -11.5zM985 163q0 74 -34.5 120.5t-110.5 46.5q-55 0 -85 -23.5t-43.5 -54t-16 -60t-2.5 -40.5q0 -74 34.5 -119t108.5 -45q43 0 71.5 14.5
t45.5 39t24.5 56t7.5 65.5zM839 45q-25 0 -39.5 11.5t-22 28t-9.5 36t-2 35.5t2 36.5t9.5 38.5t22 30.5t40.5 12.5q22 0 35.5 -10t21.5 -25.5t11 -35.5t3 -41q0 -18 -2.5 -38.5t-10 -38t-21.5 -29t-38 -11.5zM519 731l-471 -768h62l472 768h-63z" />
    <glyph glyph-name="perthousand" unicode="&#x2030;" horiz-adv-x="1000" 
d="M301 545q0 74 -34.5 120.5t-110.5 46.5q-55 0 -85 -23.5t-43.5 -54t-16 -59.5t-2.5 -41q0 -74 34.5 -119t108.5 -45q43 0 71.5 14.5t45.5 39t24.5 56t7.5 65.5zM155 427q-25 0 -39.5 11.5t-22 28.5t-9.5 36t-2 35t2 36.5t9.5 38.5t22 30.5t40.5 12.5q22 0 35.5 -10
t21.5 -25.5t11 -35.5t3 -41q0 -18 -2.5 -38.5t-10 -38t-21.5 -29t-38 -11.5zM638 163q0 75 -35 121t-110 46q-55 0 -85 -23.5t-43.5 -54t-16 -60t-2.5 -40.5q0 -74 34.5 -119t108.5 -45q43 0 71.5 14.5t45.5 39t24.5 56t7.5 65.5zM492 45q-25 0 -40 11.5t-22.5 28t-9.5 36
t-2 35.5t2 36.5t9.5 38.5t22.5 30.5t40 12.5q22 0 36 -10t22 -25.5t11 -35.5t3 -41q0 -18 -2.5 -38.5t-10 -38t-21.5 -29t-38 -11.5zM985 163q0 74 -34.5 120.5t-110.5 46.5q-55 0 -85 -23.5t-43.5 -54t-16 -60t-2.5 -40.5q0 -74 34.5 -119t108.5 -45q43 0 71.5 14.5
t45.5 39t24.5 56t7.5 65.5zM839 45q-25 0 -39.5 11.5t-22 28t-9.5 36t-2 35.5t2 36.5t9.5 38.5t22 30.5t40.5 12.5q22 0 35.5 -10t21.5 -25.5t11 -35.5t3 -41q0 -18 -2.5 -38.5t-10 -38t-21.5 -29t-38 -11.5zM519 731l-471 -768h62l472 768h-63z" />
    <glyph glyph-name="guilsinglleft" horiz-adv-x="278" 
d="M240 53l-99 196l97 194h-78l-111 -194l111 -196h80z" />
    <glyph glyph-name="guilsinglleft" unicode="&#x2039;" horiz-adv-x="278" 
d="M240 53l-99 196l97 194h-78l-111 -194l111 -196h80z" />
    <glyph glyph-name="quoteleft" horiz-adv-x="278" 
d="M161 476l67 246h-67l-115 -246h115z" />
    <glyph glyph-name="quoteleft" unicode="&#x2018;" horiz-adv-x="278" 
d="M161 476l67 246h-67l-115 -246h115z" />
    <glyph glyph-name="quoteright" horiz-adv-x="278" 
d="M112 722l-65 -246h68l112 246h-115z" />
    <glyph glyph-name="quoteright" unicode="&#x2019;" horiz-adv-x="278" 
d="M112 722l-65 -246h68l112 246h-115z" />
    <glyph glyph-name="quotedblleft" 
d="M202 476l67 246h-67l-115 -246h115zM389 476l67 246h-67l-115 -246h115z" />
    <glyph glyph-name="quotedblleft" unicode="&#x201c;" 
d="M202 476l67 246h-67l-115 -246h115zM389 476l67 246h-67l-115 -246h115z" />
    <glyph glyph-name="quotedblright" 
d="M164 722l-67 -246h67l115 246h-115zM352 722l-67 -246h67l114 246h-114z" />
    <glyph glyph-name="quotedblright" unicode="&#x201d;" 
d="M164 722l-67 -246h67l115 246h-115zM352 722l-67 -246h67l114 246h-114z" />
    <glyph glyph-name="bullet" horiz-adv-x="350" 
d="M178 542q-37 0 -70 -14t-57.5 -38.5t-39 -57.5t-14.5 -71q0 -37 14 -70t39 -57.5t57.5 -38.5t70.5 -14q37 0 70 14t57.5 38.5t38.5 57.5t14 70t-14 70t-38.5 58t-57.5 39t-70 14z" />
    <glyph glyph-name="bullet" unicode="&#x2022;" horiz-adv-x="350" 
d="M178 542q-37 0 -70 -14t-57.5 -38.5t-39 -57.5t-14.5 -71q0 -37 14 -70t39 -57.5t57.5 -38.5t70.5 -14q37 0 70 14t57.5 38.5t38.5 57.5t14 70t-14 70t-38.5 58t-57.5 39t-70 14z" />
    <glyph glyph-name="endash" horiz-adv-x="500" 
d="M0 231h500v72h-500v-72z" />
    <glyph glyph-name="endash" unicode="&#x2013;" horiz-adv-x="500" 
d="M0 231h500v72h-500v-72z" />
    <glyph glyph-name="emdash" horiz-adv-x="1000" 
d="M130 231h740v72h-740v-72z" />
    <glyph glyph-name="emdash" unicode="&#x2014;" horiz-adv-x="1000" 
d="M130 231h740v72h-740v-72z" />
    <glyph glyph-name="trademark" horiz-adv-x="1000" 
d="M409 361h46v324l108 -324h45l112 324v-324h46v361h-78l-99 -297l-97 297h-83v-361zM239 361v318h105v43h-251v-43h102v-318h44z" />
    <glyph glyph-name="trademark" unicode="&#x2122;" horiz-adv-x="1000" 
d="M409 361h46v324l108 -324h45l112 324v-324h46v361h-78l-99 -297l-97 297h-83v-361zM239 361v318h105v43h-251v-43h102v-318h44z" />
    <glyph glyph-name="guilsinglright" horiz-adv-x="278" 
d="M29 443l98 -195l-97 -195h79l111 195l-111 195h-80z" />
    <glyph glyph-name="guilsinglright" unicode="&#x203a;" horiz-adv-x="278" 
d="M29 443l98 -195l-97 -195h79l111 195l-111 195h-80z" />
    <glyph glyph-name="caron" unicode="&#xa1;" horiz-adv-x="278" 
d="M90 596h93l104 143h-79l-69 -96l-67 96h-86z" />
    <glyph glyph-name="caron" unicode="&#x2c7;" horiz-adv-x="278" 
d="M90 596h93l104 143h-79l-69 -96l-67 96h-86z" />
    <glyph glyph-name="breve" unicode="&#xa2;" horiz-adv-x="278" 
d="M2 751q0 -14 2 -40.5t15 -52.5t40.5 -45t77.5 -19q70 0 105.5 40t33.5 117h-47q0 -7 -2.5 -22.5t-12 -31.5t-27.5 -28t-50 -12q-45 0 -65.5 25.5t-22.5 68.5h-47z" />
    <glyph glyph-name="breve" unicode="&#x2d8;" horiz-adv-x="278" 
d="M2 751q0 -14 2 -40.5t15 -52.5t40.5 -45t77.5 -19q70 0 105.5 40t33.5 117h-47q0 -7 -2.5 -22.5t-12 -31.5t-27.5 -28t-50 -12q-45 0 -65.5 25.5t-22.5 68.5h-47z" />
    <glyph glyph-name="currency" unicode="&#xa4;" 
d="M40 157l49 -49l66 65q55 -40 124 -40q33 0 64 10.5t59 29.5l65 -65l49 49l-65 66q4 6 11 17t13.5 26.5t11 35.5t4.5 44q0 34 -10 65.5t-30 58.5l65 65l-49 49l-64 -65q-18 11 -48.5 25.5t-75.5 14.5q-49 0 -78.5 -14t-46.5 -25l-65 65l-49 -49l65 -65q-40 -57 -40 -125
q0 -24 4.5 -44t11 -35.5t13 -26.5t11.5 -18zM278 485q28 0 53.5 -11t44.5 -29.5t30 -44t11 -54.5t-11 -54.5t-29.5 -44t-44 -29.5t-54.5 -11t-54.5 11t-44 30t-29.5 44t-11 54t11 54.5t30 44t44 29.5t54 11z" />
    <glyph glyph-name="section" unicode="&#xa7;" 
d="M111 0q32 -11 62 -16t63 -5q50 0 88.5 11.5t65 32t40 48.5t13.5 60q0 35 -12.5 57.5t-30 37t-36.5 22t-32 11.5q48 14 75 45t27 83q0 32 -11 53t-27 34.5t-33.5 20.5t-30.5 11l-63 21q-12 4 -23.5 8.5t-20 11.5t-13.5 17.5t-5 27.5q0 22 10 35t24 20t30 9t27 2
q31 0 57.5 -8.5t53.5 -19.5v78q-36 11 -67 14t-52 3q-81 0 -130.5 -35.5t-49.5 -103.5q0 -48 28 -76t66 -39q-11 -4 -29.5 -12.5t-36 -23.5t-30.5 -38t-13 -56q0 -32 11.5 -52.5t27.5 -33t33.5 -19.5t29.5 -11l68 -21q14 -5 28 -10.5t25.5 -14t18.5 -20.5t7 -29
q0 -5 -2.5 -17.5t-12.5 -25.5t-30 -23t-55 -10q-51 0 -85 12.5t-48 19.5v-86zM266 282q-11 3 -25.5 8t-27.5 14t-22 22.5t-9 33.5q0 21 8.5 35.5t20.5 24.5t26 16.5t26 11.5q16 -5 32 -11t28.5 -14.5t20 -21t7.5 -31.5q0 -21 -10 -36.5t-23.5 -25.5t-28 -16.5t-23.5 -9.5z
" />
    <glyph glyph-name="dieresis" unicode="&#xa8;" horiz-adv-x="278" 
d="M-3 617h92v102h-92v-102zM186 617h93v102h-93v-102z" />
    <glyph glyph-name="copyright" unicode="&#xa9;" horiz-adv-x="800" 
d="M33 362q0 -78 29.5 -146.5t81 -120.5t120.5 -82t149 -30q78 0 147 30t120.5 81.5t81.5 120.5t30 147t-30 147t-81.5 120.5t-120.5 81.5t-147 30q-80 0 -149 -30t-120.5 -82t-81 -120.5t-29.5 -146.5zM78 362q0 69 26 129.5t71.5 106t106.5 72t131 26.5q69 0 130 -26.5
t106 -72t71.5 -106t26.5 -129.5t-26 -129.5t-71.5 -106t-106.5 -72t-130 -26.5q-70 0 -131 26.5t-106.5 72t-71.5 106t-26 129.5zM556 463q-3 37 -17.5 60.5t-35 37.5t-44 19.5t-44.5 5.5q-54 0 -87.5 -23t-52.5 -57.5t-26 -74t-7 -72.5q0 -31 6.5 -69t24.5 -71t50 -55.5
t84 -22.5q26 0 51.5 7t46 22t34 37.5t16.5 53.5h-60q-1 -5 -4 -17t-11.5 -24t-24.5 -21t-43 -9q-35 0 -56.5 15.5t-33.5 40t-16.5 54.5t-4.5 59q0 26 4 57.5t15.5 58.5t33.5 45t58 18q29 0 45.5 -9.5t25.5 -22.5t11.5 -25t2.5 -18h59z" />
    <glyph glyph-name="guillemotleft" unicode="&#xab;" 
d="M274 53l-98 196l97 194h-79l-111 -194l111 -196h80zM470 53l-98 196l97 194h-79l-111 -194l111 -196h80z" />
    <glyph glyph-name="logicalnot" horiz-adv-x="584" 
d="M37 314h430v-203h80v280h-510v-77z" />
    <glyph glyph-name="registered" unicode="&#xae;" horiz-adv-x="800" 
d="M215 452h28v92h35q25 0 33.5 -8t10.5 -31q3 -24 5 -33.5t5 -19.5h29q-5 15 -7.5 30t-4.5 34t-8.5 27t-22.5 12q14 4 22 11.5t11.5 15t4 14t0.5 8.5q0 19 -8.5 29.5t-20 15t-23 5.5t-17.5 1h-72v-203zM243 631h44q6 0 13 -0.5t13 -3.5t10 -9.5t4 -18.5t-4.5 -18t-10.5 -9
t-13 -3.5t-12 -0.5h-44v63zM284 741q-38 0 -72 -14.5t-60 -40t-41.5 -60t-15.5 -74.5t15 -74.5t41 -60t60.5 -40.5t72.5 -15q39 0 73 15t60 40.5t41 60t15 74.5q0 39 -15 73.5t-40.5 60t-60 40.5t-73.5 15zM284 710q33 0 62 -12.5t50.5 -34.5t33.5 -50.5t12 -60.5
q0 -33 -12.5 -62t-34 -50.5t-50 -34t-61.5 -12.5q-32 0 -61 12.5t-50.5 34t-34 50.5t-12.5 62t12.5 61.5t34 50t50.5 34t61 12.5z" />
    <glyph glyph-name="degree" unicode="&#xb0;" horiz-adv-x="400" 
d="M200 706q-32 0 -60.5 -12t-49.5 -33t-33.5 -49.5t-12.5 -61.5q0 -32 12.5 -60.5t33.5 -49.5t49.5 -33.5t60.5 -12.5q33 0 61.5 12.5t49.5 33.5t33 49.5t12 60.5q0 33 -12.5 61.5t-33.5 49.5t-49.5 33t-60.5 12zM200 637q36 0 61.5 -25.5t25.5 -61.5q0 -18 -6.5 -33.5
t-18.5 -27.5t-28 -19t-34 -7q-36 0 -61.5 25.5t-25.5 61.5q0 18 7 34t19 28t27.5 18.5t33.5 6.5z" />
    <glyph glyph-name="plusminus" unicode="&#xb1;" horiz-adv-x="584" 
d="M250 104h84v166h213v77h-213v168h-84v-168h-213v-77h213v-166zM37 -13h510v77h-510v-77z" />
    <glyph glyph-name="ogonek" unicode="&#xb2;" horiz-adv-x="278" 
d="M233 -132q-8 -5 -18 -8.5t-27 -3.5q-3 0 -13.5 1t-21.5 5.5t-20 14.5t-9 29q0 16 7 29t19 24t26.5 21.5t29.5 20.5h-40q-25 -11 -47 -24t-38.5 -28.5t-26 -33.5t-9.5 -39q0 -12 4.5 -25t15.5 -24t29 -18t45 -7q34 0 55 8t39 17v41z" />
    <glyph glyph-name="ogonek" unicode="&#x2db;" horiz-adv-x="278" 
d="M233 -132q-8 -5 -18 -8.5t-27 -3.5q-3 0 -13.5 1t-21.5 5.5t-20 14.5t-9 29q0 16 7 29t19 24t26.5 21.5t29.5 20.5h-40q-25 -11 -47 -24t-38.5 -28.5t-26 -33.5t-9.5 -39q0 -12 4.5 -25t15.5 -24t29 -18t45 -7q34 0 55 8t39 17v41z" />
    <glyph glyph-name="acute" unicode="&#xb4;" horiz-adv-x="278" 
d="M162 740l-82 -144h65l121 144h-104z" />
    <glyph glyph-name="mu" unicode="&#xb5;" horiz-adv-x="611" 
d="M89 -209h80v261q6 -8 15.5 -19t23.5 -21t34 -16.5t49 -6.5q33 0 56.5 9t40.5 21.5t28 26.5t18 24v-70h74v502h-81v-240q0 -44 -5 -79.5t-20 -61.5q-21 -36 -51.5 -49.5t-57.5 -13.5q-10 0 -23 2t-27 8t-27.5 17t-23.5 29q-8 14 -13 32.5t-7 38t-2.5 39t-0.5 36.5v242h-80
v-711z" />
    <glyph glyph-name="mu" unicode="&#x3bc;" horiz-adv-x="611" 
d="M89 -209h80v261q6 -8 15.5 -19t23.5 -21t34 -16.5t49 -6.5q33 0 56.5 9t40.5 21.5t28 26.5t18 24v-70h74v502h-81v-240q0 -44 -5 -79.5t-20 -61.5q-21 -36 -51.5 -49.5t-57.5 -13.5q-10 0 -23 2t-27 8t-27.5 17t-23.5 29q-8 14 -13 32.5t-7 38t-2.5 39t-0.5 36.5v242h-80
v-711z" />
    <glyph glyph-name="paragraph" unicode="&#xb6;" horiz-adv-x="537" 
d="M526 658v64h-272q-77 0 -127 -23t-79.5 -58.5t-41 -77t-11.5 -77.5t10 -73.5t33 -69t62 -53.5t98 -26v-432h79v826h117v-826h78v826h54z" />
    <glyph glyph-name="periodcentered" unicode="&#xb7;" horiz-adv-x="278" 
d="M81 231h111v121h-111v-121z" />
    <glyph glyph-name="periodcentered" unicode="&#x22c5;" horiz-adv-x="278" 
d="M81 231h111v121h-111v-121z" />
    <glyph glyph-name="cedilla" unicode="&#xb8;" horiz-adv-x="278" 
d="M22 -194q17 -8 37.5 -14t56.5 -6q45 0 70 13t36.5 29t13.5 30.5t2 17.5q0 11 -4 23.5t-13 23t-24 17.5t-37 7q-13 0 -22.5 -1.5t-17.5 -3.5l45 63h-42l-63 -88l15 -17q10 4 17.5 6t18.5 2q6 0 14.5 -1t17 -5t14 -12t5.5 -21q0 -40 -53 -40q-28 0 -43.5 4.5t-23.5 9.5z
" />
    <glyph glyph-name="guillemotright" unicode="&#xbb;" 
d="M81 443l98 -195l-97 -195h79l111 195l-111 195h-80zM277 443l98 -195l-97 -195h78l112 195l-112 195h-79z" />
    <glyph glyph-name="hungarumlaut" unicode="&#xbd;" horiz-adv-x="278" 
d="M192 740h-104l-82 -144h65zM351 740h-104l-82 -144h65z" />
    <glyph glyph-name="hungarumlaut" unicode="&#x2dd;" horiz-adv-x="278" 
d="M192 740h-104l-82 -144h65zM351 740h-104l-82 -144h65z" />
    <glyph glyph-name="Aacute" unicode="&#xc1;" horiz-adv-x="722" 
d="M9 0h103l78 188h335l78 -188h109l-292 722h-107zM362 623l133 -354h-273zM391 909l-82 -144h65l121 144h-104z" />
    <glyph glyph-name="Acircumflex" unicode="&#xc2;" horiz-adv-x="722" 
d="M9 0h103l78 188h335l78 -188h109l-292 722h-107zM362 623l133 -354h-273zM293 765l72 96l66 -96h85l-104 145h-90l-106 -145h77z" />
    <glyph glyph-name="Adieresis" unicode="&#xc4;" horiz-adv-x="722" 
d="M9 0h103l78 188h335l78 -188h109l-292 722h-107zM362 623l133 -354h-273zM219 786h92v102h-92v-102zM408 786h93v102h-93v-102z" />
    <glyph glyph-name="Ccedilla" unicode="&#xc7;" horiz-adv-x="667" 
d="M518 190q-2 -13 -8.5 -34t-26.5 -42q-23 -24 -53.5 -33.5t-63.5 -9.5q-62 0 -101.5 25t-62.5 65.5t-31.5 91t-8.5 101.5q0 45 7.5 97t29.5 97t62.5 74.5t105.5 29.5q52 0 82.5 -16t46 -37t20.5 -42t7 -30h107q-5 61 -31.5 101t-64.5 63t-81.5 32t-81.5 9
q-65 0 -113 -17.5t-83.5 -47t-58.5 -68.5t-36.5 -81t-19 -84.5t-5.5 -80.5q0 -61 13.5 -124t46 -115t87 -86.5t136.5 -38.5l-52 -72l15 -17q10 4 18 6t19 2q6 0 14.5 -1t17 -5t14 -12t5.5 -21q0 -20 -14 -30t-40 -10q-27 0 -43 4.5t-24 9.5l-20 -37q17 -8 37.5 -14t56.5 -6
q45 0 70 13t37 29t14 30.5t2 17.5q0 11 -4 23.5t-13.5 23t-24.5 17.5t-37 7q-13 0 -22 -1.5t-17 -3.5l34 47q43 3 85 15.5t76 36.5t57.5 61t28.5 88h-110z" />
    <glyph glyph-name="Eacute" unicode="&#xc9;" horiz-adv-x="611" 
d="M76 0h461v88h-361v240h336v84h-336v225h353v85h-453v-722zM329 909l-82 -144h65l121 144h-104z" />
    <glyph glyph-name="Edieresis" unicode="&#xcb;" horiz-adv-x="611" 
d="M76 0h461v88h-361v240h336v84h-336v225h353v85h-453v-722zM165 786h92v102h-92v-102zM354 786h93v102h-93v-102z" />
    <glyph glyph-name="Iacute" unicode="&#xcd;" horiz-adv-x="278" 
d="M88 0h100v722h-100v-722zM162 909l-82 -144h65l121 144h-104z" />
    <glyph glyph-name="Icircumflex" unicode="&#xce;" horiz-adv-x="278" 
d="M88 0h100v722h-100v-722zM64 765l71 96l66 -96h86l-104 145h-90l-106 -145h77z" />
    <glyph glyph-name="Oacute" unicode="&#xd3;" horiz-adv-x="778" 
d="M59 356q0 -74 16.5 -141.5t54.5 -119t100.5 -82t154.5 -30.5q96 0 160.5 33t103 87.5t54.5 123.5t16 141q0 92 -23 161.5t-65 116.5t-102.5 71t-135.5 24q-25 0 -55.5 -4t-62 -14.5t-63.5 -29.5t-60 -49q-30 -32 -48 -69.5t-28 -75.5t-13.5 -75t-3.5 -68zM164 362
q0 55 10 108.5t36 94.5t70.5 66.5t113.5 25.5q62 0 104 -22t67.5 -60.5t36.5 -91.5t11 -114q0 -18 -2 -47t-8.5 -62t-19.5 -66t-35 -60q-32 -38 -73.5 -52t-86.5 -14q-43 0 -86 14t-74 52q-38 47 -51 107.5t-13 120.5zM413 909l-82 -144h65l122 144h-105z" />
    <glyph glyph-name="Ocircumflex" unicode="&#xd4;" horiz-adv-x="778" 
d="M59 356q0 -74 16.5 -141.5t54.5 -119t100.5 -82t154.5 -30.5q96 0 160.5 33t103 87.5t54.5 123.5t16 141q0 92 -23 161.5t-65 116.5t-102.5 71t-135.5 24q-25 0 -55.5 -4t-62 -14.5t-63.5 -29.5t-60 -49q-30 -32 -48 -69.5t-28 -75.5t-13.5 -75t-3.5 -68zM164 362
q0 55 10 108.5t36 94.5t70.5 66.5t113.5 25.5q62 0 104 -22t67.5 -60.5t36.5 -91.5t11 -114q0 -18 -2 -47t-8.5 -62t-19.5 -66t-35 -60q-32 -38 -73.5 -52t-86.5 -14q-43 0 -86 14t-74 52q-38 47 -51 107.5t-13 120.5zM315 765l71 96l66 -96h86l-104 145h-91l-105 -145h77z
" />
    <glyph glyph-name="Odieresis" unicode="&#xd6;" horiz-adv-x="778" 
d="M59 356q0 -74 16.5 -141.5t54.5 -119t100.5 -82t154.5 -30.5q96 0 160.5 33t103 87.5t54.5 123.5t16 141q0 92 -23 161.5t-65 116.5t-102.5 71t-135.5 24q-25 0 -55.5 -4t-62 -14.5t-63.5 -29.5t-60 -49q-30 -32 -48 -69.5t-28 -75.5t-13.5 -75t-3.5 -68zM164 362
q0 55 10 108.5t36 94.5t70.5 66.5t113.5 25.5q62 0 104 -22t67.5 -60.5t36.5 -91.5t11 -114q0 -18 -2 -47t-8.5 -62t-19.5 -66t-35 -60q-32 -38 -73.5 -52t-86.5 -14q-43 0 -86 14t-74 52q-38 47 -51 107.5t-13 120.5zM247 786h92v102h-92v-102zM436 786h93v102h-93v-102z
" />
    <glyph glyph-name="Uacute" unicode="&#xda;" horiz-adv-x="778" 
d="M93 722v-440q0 -41 3.5 -70t9.5 -50t13.5 -35.5t15.5 -26.5q25 -36 58.5 -58.5t68.5 -35t68.5 -17t59.5 -4.5q19 0 48 3t61.5 13.5t64.5 30.5t59 53q22 27 34 55t17.5 53.5t6.5 47t1 36.5v445h-97v-443q0 -20 -3 -54t-21.5 -68t-58 -58.5t-112.5 -24.5q-19 0 -40.5 2.5
t-43.5 10.5t-43 21.5t-38 36.5q-6 8 -11.5 18.5t-10 25.5t-7.5 36t-3 50v447h-100zM412 909l-82 -144h65l121 144h-104z" />
    <glyph glyph-name="Udieresis" unicode="&#xdc;" horiz-adv-x="778" 
d="M93 722v-440q0 -41 3.5 -70t9.5 -50t13.5 -35.5t15.5 -26.5q25 -36 58.5 -58.5t68.5 -35t68.5 -17t59.5 -4.5q19 0 48 3t61.5 13.5t64.5 30.5t59 53q22 27 34 55t17.5 53.5t6.5 47t1 36.5v445h-97v-443q0 -20 -3 -54t-21.5 -68t-58 -58.5t-112.5 -24.5q-19 0 -40.5 2.5
t-43.5 10.5t-43 21.5t-38 36.5q-6 8 -11.5 18.5t-10 25.5t-7.5 36t-3 50v447h-100zM247 786h92v102h-92v-102zM436 786h93v102h-93v-102z" />
    <glyph glyph-name="germandbls" unicode="&#xdf;" horiz-adv-x="667" 
d="M90 0h94v525q0 79 30 112.5t101 33.5q33 0 56.5 -7.5t38.5 -20t22 -29t7 -35.5q0 -27 -12 -40.5t-32 -28.5q-17 -13 -32 -25t-26.5 -26t-18 -30.5t-6.5 -37.5q0 -33 19 -58t57 -48l60 -37q12 -8 24.5 -16.5t22 -20t15.5 -26t6 -34.5q0 -12 -4 -28t-14.5 -29.5t-28 -23
t-45.5 -9.5q-36 0 -59 20.5t-22 62.5h-92q0 -15 1.5 -32.5t10.5 -40.5q10 -24 27 -39.5t38 -24.5t43.5 -12.5t43.5 -3.5q39 0 74.5 11.5t62.5 34t43 55t16 74.5q0 44 -20 75t-70 63l-87 57q-11 8 -18.5 18.5t-7.5 24.5q0 10 3 18.5t11 17t21 19t34 26.5q26 20 40 42t14 59
q0 44 -20 72.5t-50.5 45.5t-68 24t-73.5 7q-80 0 -126 -21t-69 -52t-28.5 -67t-5.5 -67v-528z" />
    <glyph glyph-name="aacute" unicode="&#xe1;" 
d="M479 0q-3 19 -4.5 40t-2 39t-1 31t-0.5 16l4 240q0 17 -2.5 35.5t-14.5 41.5q-10 19 -29 33t-43 23t-51.5 13.5t-54.5 4.5q-20 0 -42.5 -2.5t-44 -8.5t-41.5 -16.5t-34 -26.5q-22 -26 -27.5 -50.5t-7.5 -44.5h94q0 7 2.5 21.5t12.5 28.5t30 24.5t56 10.5q20 0 46.5 -7
t40.5 -26q7 -8 10.5 -18t5 -22.5t2 -30t0.5 -40.5q-22 2 -36 2.5t-32 0.5q-15 0 -36.5 -1t-45.5 -4.5t-48 -10t-44 -17.5q-28 -16 -45 -35.5t-26.5 -39t-13 -38.5t-3.5 -34q0 -31 11.5 -58t34 -47t55.5 -31.5t76 -11.5q16 0 35.5 2.5t40.5 12t41.5 27.5t37.5 49q0 -20 2 -38
t7 -37h85zM383 244q-1 -26 -2 -45.5t-3 -34.5t-6.5 -27t-12.5 -25q-35 -54 -107 -54q-32 0 -52 9t-31.5 22.5t-16 28.5t-4.5 27q0 38 23 59t53.5 30.5t60.5 11t44 1.5q17 0 29 -0.5t25 -2.5zM301 740l-82 -144h65l121 144h-104z" />
    <glyph glyph-name="acircumflex" unicode="&#xe2;" 
d="M479 0q-3 19 -4.5 40t-2 39t-1 31t-0.5 16l4 240q0 17 -2.5 35.5t-14.5 41.5q-10 19 -29 33t-43 23t-51.5 13.5t-54.5 4.5q-20 0 -42.5 -2.5t-44 -8.5t-41.5 -16.5t-34 -26.5q-22 -26 -27.5 -50.5t-7.5 -44.5h94q0 7 2.5 21.5t12.5 28.5t30 24.5t56 10.5q20 0 46.5 -7
t40.5 -26q7 -8 10.5 -18t5 -22.5t2 -30t0.5 -40.5q-22 2 -36 2.5t-32 0.5q-15 0 -36.5 -1t-45.5 -4.5t-48 -10t-44 -17.5q-28 -16 -45 -35.5t-26.5 -39t-13 -38.5t-3.5 -34q0 -31 11.5 -58t34 -47t55.5 -31.5t76 -11.5q16 0 35.5 2.5t40.5 12t41.5 27.5t37.5 49q0 -20 2 -38
t7 -37h85zM383 244q-1 -26 -2 -45.5t-3 -34.5t-6.5 -27t-12.5 -25q-35 -54 -107 -54q-32 0 -52 9t-31.5 22.5t-16 28.5t-4.5 27q0 38 23 59t53.5 30.5t60.5 11t44 1.5q17 0 29 -0.5t25 -2.5zM215 596l71 96l66 -96h86l-104 145h-90l-106 -145h77z" />
    <glyph glyph-name="adieresis" unicode="&#xe4;" 
d="M479 0q-3 19 -4.5 40t-2 39t-1 31t-0.5 16l4 240q0 17 -2.5 35.5t-14.5 41.5q-10 19 -29 33t-43 23t-51.5 13.5t-54.5 4.5q-20 0 -42.5 -2.5t-44 -8.5t-41.5 -16.5t-34 -26.5q-22 -26 -27.5 -50.5t-7.5 -44.5h94q0 7 2.5 21.5t12.5 28.5t30 24.5t56 10.5q20 0 46.5 -7
t40.5 -26q7 -8 10.5 -18t5 -22.5t2 -30t0.5 -40.5q-22 2 -36 2.5t-32 0.5q-15 0 -36.5 -1t-45.5 -4.5t-48 -10t-44 -17.5q-28 -16 -45 -35.5t-26.5 -39t-13 -38.5t-3.5 -34q0 -31 11.5 -58t34 -47t55.5 -31.5t76 -11.5q16 0 35.5 2.5t40.5 12t41.5 27.5t37.5 49q0 -20 2 -38
t7 -37h85zM383 244q-1 -26 -2 -45.5t-3 -34.5t-6.5 -27t-12.5 -25q-35 -54 -107 -54q-32 0 -52 9t-31.5 22.5t-16 28.5t-4.5 27q0 38 23 59t53.5 30.5t60.5 11t44 1.5q17 0 29 -0.5t25 -2.5zM160 617h92v102h-92v-102zM349 617h93v102h-93v-102z" />
    <glyph glyph-name="ccedilla" unicode="&#xe7;" horiz-adv-x="500" 
d="M378 167q-1 -18 -7 -37.5t-18.5 -35.5t-33 -26t-50.5 -10q-38 0 -62 16.5t-38 44.5t-19.5 63.5t-5.5 74.5q0 14 2 45.5t14 63.5t38.5 56t75.5 24q34 0 53.5 -13t29.5 -30.5t13 -35t4 -26.5h95q-2 21 -8 50.5t-34 61.5q-17 21 -38.5 33t-43 18.5t-41 8.5t-31.5 2
q-35 0 -74.5 -11.5t-74 -42.5t-57 -84t-22.5 -137q0 -44 9 -86.5t32 -77t61 -58t97 -30.5l-51 -71l15 -17q10 4 17.5 6t18.5 2q6 0 14.5 -1t17 -5t14 -12t5.5 -21q0 -20 -14 -30t-40 -10q-27 0 -42.5 4.5t-24.5 9.5l-19 -37q17 -8 37.5 -14t55.5 -6q46 0 71 13t36.5 29
t13.5 30.5t2 17.5q0 11 -4 23.5t-13.5 23t-24.5 17.5t-37 7q-13 0 -22 -1.5t-17 -3.5l33 46q43 3 77 18t58 39t37 55.5t15 66.5h-95z" />
    <glyph glyph-name="eacute" unicode="&#xe9;" 
d="M506 234v49t-5.5 60.5t-18.5 62t-37 55t-62.5 39.5t-94.5 15q-11 0 -27 -1t-34.5 -5t-38 -11t-37.5 -20q-59 -41 -79 -101.5t-20 -134.5q0 -119 57 -188t176 -69q38 0 66.5 7t49.5 17t35 22t22 21q27 29 34 57.5t9 47.5h-94q-6 -54 -39 -79t-79 -25q-39 0 -66.5 13.5
t-45 38t-25.5 57.5t-7 72h361zM149 300q1 42 14 70t32.5 45.5t43.5 25t47 7.5q43 0 68 -16.5t37.5 -39.5t15.5 -48.5t3 -43.5h-261zM320 740l-82 -144h65l121 144h-104z" />
    <glyph glyph-name="edieresis" unicode="&#xeb;" 
d="M506 234v49t-5.5 60.5t-18.5 62t-37 55t-62.5 39.5t-94.5 15q-11 0 -27 -1t-34.5 -5t-38 -11t-37.5 -20q-59 -41 -79 -101.5t-20 -134.5q0 -119 57 -188t176 -69q38 0 66.5 7t49.5 17t35 22t22 21q27 29 34 57.5t9 47.5h-94q-6 -54 -39 -79t-79 -25q-39 0 -66.5 13.5
t-45 38t-25.5 57.5t-7 72h361zM149 300q1 42 14 70t32.5 45.5t43.5 25t47 7.5q43 0 68 -16.5t37.5 -39.5t15.5 -48.5t3 -43.5h-261zM155 617h92v102h-92v-102zM344 617h93v102h-93v-102z" />
    <glyph glyph-name="iacute" unicode="&#xed;" horiz-adv-x="278" 
d="M93 0h90v502h-90v-502zM162 740l-82 -144h65l121 144h-104z" />
    <glyph glyph-name="icircumflex" unicode="&#xee;" horiz-adv-x="278" 
d="M93 0h90v502h-90v-502zM64 596l71 96l66 -96h86l-104 145h-90l-106 -145h77z" />
    <glyph glyph-name="oacute" unicode="&#xf3;" horiz-adv-x="611" 
d="M51 245q0 -55 15 -103t46 -83t77.5 -55.5t108.5 -20.5q64 0 112 21.5t79.5 58t47 85.5t15.5 104q0 39 -10 85t-37.5 85.5t-75.5 66t-123 26.5q-74 0 -123 -25t-78.5 -64t-41.5 -87t-12 -94zM149 251q0 59 16 97t40 59.5t51 30t50 8.5q66 0 106 -48.5t40 -142.5
q0 -57 -14 -95.5t-35.5 -62t-48.5 -34t-54 -10.5q-40 0 -68.5 16.5t-47 44t-27 63t-8.5 74.5zM329 740l-82 -144h65l121 144h-104z" />
    <glyph glyph-name="ocircumflex" unicode="&#xf4;" horiz-adv-x="611" 
d="M51 245q0 -55 15 -103t46 -83t77.5 -55.5t108.5 -20.5q64 0 112 21.5t79.5 58t47 85.5t15.5 104q0 39 -10 85t-37.5 85.5t-75.5 66t-123 26.5q-74 0 -123 -25t-78.5 -64t-41.5 -87t-12 -94zM149 251q0 59 16 97t40 59.5t51 30t50 8.5q66 0 106 -48.5t40 -142.5
q0 -57 -14 -95.5t-35.5 -62t-48.5 -34t-54 -10.5q-40 0 -68.5 16.5t-47 44t-27 63t-8.5 74.5zM231 596l71 96l66 -96h86l-104 145h-90l-106 -145h77z" />
    <glyph glyph-name="odieresis" unicode="&#xf6;" horiz-adv-x="611" 
d="M51 245q0 -55 15 -103t46 -83t77.5 -55.5t108.5 -20.5q64 0 112 21.5t79.5 58t47 85.5t15.5 104q0 39 -10 85t-37.5 85.5t-75.5 66t-123 26.5q-74 0 -123 -25t-78.5 -64t-41.5 -87t-12 -94zM149 251q0 59 16 97t40 59.5t51 30t50 8.5q66 0 106 -48.5t40 -142.5
q0 -57 -14 -95.5t-35.5 -62t-48.5 -34t-54 -10.5q-40 0 -68.5 16.5t-47 44t-27 63t-8.5 74.5zM164 617h92v102h-92v-102zM353 617h93v102h-93v-102z" />
    <glyph glyph-name="divide" unicode="&#xf7;" horiz-adv-x="584" 
d="M37 212h510v78h-510v-78zM242 10h100v119h-100v-119zM242 373h100v118h-100v-118z" />
    <glyph glyph-name="uacute" unicode="&#xfa;" horiz-adv-x="611" 
d="M78 502v-337q0 -37 11 -68.5t33.5 -54t56.5 -35t81 -12.5q40 0 68 9.5t46 23t28.5 29.5t17.5 29l2 -86h98q0 10 -0.5 25t-1 29t-1 25t-0.5 15v408h-97v-284q0 -19 -2.5 -45t-18.5 -49q-20 -30 -51.5 -43t-66.5 -13q-36 0 -57 10.5t-32.5 26.5t-14.5 36t-3 38v323h-96z
M329 740l-82 -144h65l121 144h-104z" />
    <glyph glyph-name="udieresis" unicode="&#xfc;" horiz-adv-x="611" 
d="M78 502v-337q0 -37 11 -68.5t33.5 -54t56.5 -35t81 -12.5q40 0 68 9.5t46 23t28.5 29.5t17.5 29l2 -86h98q0 10 -0.5 25t-1 29t-1 25t-0.5 15v408h-97v-284q0 -19 -2.5 -45t-18.5 -49q-20 -30 -51.5 -43t-66.5 -13q-36 0 -57 10.5t-32.5 26.5t-14.5 36t-3 38v323h-96z
M163 617h93v102h-93v-102zM353 617h93v102h-93v-102z" />
    <glyph glyph-name="dotaccent" unicode="&#xff;" horiz-adv-x="278" 
d="M93 617h92v102h-92v-102z" />
    <glyph glyph-name="dotaccent" unicode="&#x2d9;" horiz-adv-x="278" 
d="M93 617h92v102h-92v-102z" />
    <glyph glyph-name="ordfeminine" horiz-adv-x="334" 
d="M299 431q-4 30 -4.5 51.5t-0.5 24.5l2 143q1 9 -0.5 19t-7.5 24q-12 25 -45.5 36.5t-72.5 11.5q-34 0 -54 -6t-31 -12q-15 -8 -23 -17.5t-12.5 -19.5t-6 -19t-1.5 -15h61q0 4 1.5 12.5t8 17t20 14.5t37.5 6q25 0 38.5 -6t20 -17.5t7.5 -27.5t1 -35q-3 0 -10 0.5t-14.5 1
t-14.5 0.5h-9q-29 0 -58.5 -5t-53.5 -17t-39 -32.5t-15 -52.5q0 -23 9 -39.5t25 -28t36 -17t43 -5.5q26 0 43.5 6t29.5 15t18.5 18.5t10.5 15.5q0 -17 2 -28.5t4 -16.5h55zM237 577q-1 -23 -2.5 -39.5t-7.5 -30.5q-1 -2 -5.5 -9t-13.5 -14t-22.5 -12.5t-33.5 -5.5
q-21 0 -34 5.5t-20.5 13.5t-10.5 17t-3 16q0 27 20 40t46.5 17.5t51.5 3.5t35 -2z" />
    <glyph glyph-name="ugrave" horiz-adv-x="611" 
d="M78 502v-337q0 -37 11 -68.5t33.5 -54t56.5 -35t81 -12.5q40 0 68 9.5t46 23t28.5 29.5t17.5 29l2 -86h98q0 10 -0.5 25t-1 29t-1 25t-0.5 15v408h-97v-284q0 -19 -2.5 -45t-18.5 -49q-20 -30 -51.5 -43t-66.5 -13q-36 0 -57 10.5t-32.5 26.5t-14.5 36t-3 38v323h-96z
M169 740l135 -144h62l-84 144h-113z" />
    <glyph glyph-name="atilde" 
d="M479 0q-3 19 -4.5 40t-2 39t-1 31t-0.5 16l4 240q0 17 -2.5 35.5t-14.5 41.5q-10 19 -29 33t-43 23t-51.5 13.5t-54.5 4.5q-20 0 -42.5 -2.5t-44 -8.5t-41.5 -16.5t-34 -26.5q-22 -26 -27.5 -50.5t-7.5 -44.5h94q0 7 2.5 21.5t12.5 28.5t30 24.5t56 10.5q20 0 46.5 -7
t40.5 -26q7 -8 10.5 -18t5 -22.5t2 -30t0.5 -40.5q-22 2 -36 2.5t-32 0.5q-15 0 -36.5 -1t-45.5 -4.5t-48 -10t-44 -17.5q-28 -16 -45 -35.5t-26.5 -39t-13 -38.5t-3.5 -34q0 -31 11.5 -58t34 -47t55.5 -31.5t76 -11.5q16 0 35.5 2.5t40.5 12t41.5 27.5t37.5 49q0 -20 2 -38
t7 -37h85zM329 247q17 0 29 -0.5t25 -2.5q-1 -26 -2 -45.5t-3 -34.5t-6.5 -27t-12.5 -25q-35 -54 -107 -54q-32 0 -52 9t-31.5 22.5t-16 28.5t-4.5 27q0 38 23 59t53.5 30.5t60.5 11t44 1.5zM179 612q7 22 17 29t21 7q5 0 20 -4.5t30 -8.5q22 -7 35.5 -10t27.5 -3
q13 0 28.5 5t28 16.5t20.5 31t7 48.5h-41q0 -17 -9.5 -27t-27.5 -10q-9 0 -17.5 2t-19.5 5q-21 6 -33.5 9t-20 5t-12.5 2.5t-11 0.5q-38 0 -61 -28q-22 -27 -24 -70h42z" />
    <glyph glyph-name="igrave" horiz-adv-x="278" 
d="M89 0h94v502h-94v-502zM2 740l135 -144h62l-84 144h-113z" />
    <glyph glyph-name="Idieresis" horiz-adv-x="278" 
d="M88 0h100v722h-100v-722zM-3 786h92v102h-92v-102zM186 786h93v102h-93v-102z" />
    <glyph glyph-name="dotlessi" unicode="&#x131;" horiz-adv-x="278" 
d="M93 0h90v502h-90v-502z" />
    <glyph glyph-name="ydieresis" 
d="M537 502h-102l-160 -396l-157 396h-106l209 -500l-76 -192h97l72 187zM136 617h92v102h-92v-102zM325 617h93v102h-93v-102z" />
    <glyph glyph-name="sterling" 
d="M106 347v-279h-67v-68h484v67h-319v280h141v67h-141v42q0 34 0.5 57.5t3.5 41t9 30.5t17 27q21 26 49.5 34t48.5 8q51 0 80 -28t30 -70h98q0 16 -4 43t-28 53q-19 20 -41.5 33t-46 20.5t-46.5 10t-44 2.5q-64 0 -104.5 -19.5t-64 -45t-33.5 -50t-12 -34.5
q-9 -38 -9.5 -78.5t1.5 -76.5h-76v-67h74z" />
    <glyph glyph-name="ae" horiz-adv-x="889" 
d="M734 155q0 -15 -6 -32.5t-19 -33t-34 -25.5t-52 -10q-32 0 -63 16t-50 51q-16 27 -19.5 60.5t-4.5 55.5h347q0 45 -3.5 90t-21.5 82q-16 32 -39 52.5t-48.5 32.5t-50.5 16.5t-44 4.5q-6 0 -27 -1.5t-47.5 -11.5t-53.5 -31.5t-45 -60.5q-5 16 -16 34.5t-31 34t-52 25.5
t-80 10q-55 0 -87 -11.5t-50 -23.5q-20 -13 -31.5 -28.5t-17.5 -30.5t-7.5 -28.5l-2.5 -22.5h93q1 24 12 39t26.5 24t34 12t35.5 3q43 0 67.5 -14t36.5 -35t14.5 -45.5t2.5 -45.5q-14 0 -31.5 0.5t-34.5 0.5q-25 0 -61 -1.5t-71 -6.5q-40 -6 -68.5 -21.5t-47 -37
t-27.5 -46.5t-9 -51q0 -27 10 -54.5t33 -50.5t61.5 -37.5t94.5 -14.5q55 0 90.5 14t57 33t32 38.5t15.5 31.5q18 -44 46.5 -68t57.5 -35t53 -13t32 -2q22 0 52.5 5.5t60 23.5t53 51t31.5 89h-96zM488 304q2 18 6 41.5t20 45.5q17 24 44.5 39t62.5 15q27 0 45.5 -8.5
t30.5 -19t18 -21.5t8 -15q9 -20 11 -41t2 -36h-248zM400 241q0 -27 -3 -60.5t-22 -62.5q-14 -22 -42.5 -43t-76.5 -21q-19 0 -39.5 4.5t-37 15t-27 27.5t-10.5 41q0 34 18 53.5t41 29t46 12t34 3.5q16 1 34 1h34h29h22z" />
    <glyph glyph-name="radical" unicode="&#x221a;" horiz-adv-x="509" 
d="M520 786h-83l-181 -881l-147 310l-119 -56l31 -65l47 23l161 -331h80z" />
    <glyph glyph-name="Aring" horiz-adv-x="722" 
d="M9 0h103l78 188h335l78 -188h109l-292 722h-107zM362 623l133 -354h-273zM263 838q0 -41 28.5 -69.5t69.5 -28.5t69.5 28.5t28.5 69.5t-28.5 69.5t-69.5 28.5t-69.5 -28.5t-28.5 -69.5zM303 838q0 24 17 41t41 17t41 -17t17 -41t-17 -41t-41 -17t-41 17t-17 41z" />
    <glyph glyph-name="ring" unicode="&#x2da;" horiz-adv-x="278" 
d="M41 669q0 -41 28.5 -69.5t69.5 -28.5t69.5 28.5t28.5 69.5t-28.5 69.5t-69.5 28.5t-69.5 -28.5t-28.5 -69.5zM81 669q0 24 17 41t41 17t41 -17t17 -41t-17 -41t-41 -17t-41 17t-17 41z" />
    <glyph glyph-name="tilde" unicode="&#x2dc;" horiz-adv-x="278" 
d="M40 612q7 22 17 29t21 7q5 0 20 -4.5t30 -8.5q22 -7 35.5 -10t27.5 -3q13 0 28.5 5t28 16.5t20.5 31t7 48.5h-41q0 -17 -9.5 -27t-27.5 -10q-9 0 -17.5 2t-19.5 5q-21 6 -33.5 9t-20 5t-12.5 2.5t-11 0.5q-38 0 -61 -28q-22 -27 -24 -70h42z" />
    <glyph glyph-name="ecircumflex" 
d="M506 234v49t-5.5 60.5t-18.5 62t-37 55t-62.5 39.5t-94.5 15q-11 0 -27 -1t-34.5 -5t-38 -11t-37.5 -20q-59 -41 -79 -101.5t-20 -134.5q0 -119 57 -188t176 -69q38 0 66.5 7t49.5 17t35 22t22 21q27 29 34 57.5t9 47.5h-94q-6 -54 -39 -79t-79 -25q-39 0 -66.5 13.5
t-45 38t-25.5 57.5t-7 72h361zM149 300q1 42 14 70t32.5 45.5t43.5 25t47 7.5q43 0 68 -16.5t37.5 -39.5t15.5 -48.5t3 -43.5h-261zM203 596l71 96l66 -96h86l-104 145h-90l-106 -145h77z" />
    <glyph glyph-name="ucircumflex" horiz-adv-x="611" 
d="M78 502v-337q0 -37 11 -68.5t33.5 -54t56.5 -35t81 -12.5q40 0 68 9.5t46 23t28.5 29.5t17.5 29l2 -86h98q0 10 -0.5 25t-1 29t-1 25t-0.5 15v408h-97v-284q0 -19 -2.5 -45t-18.5 -49q-20 -30 -51.5 -43t-66.5 -13q-36 0 -57 10.5t-32.5 26.5t-14.5 36t-3 38v323h-96z
M231 596l71 96l66 -96h86l-104 145h-90l-106 -145h77z" />
    <glyph glyph-name="Ecircumflex" horiz-adv-x="611" 
d="M76 0h461v88h-361v240h336v84h-336v225h353v85h-453v-722zM231 765l71 96l66 -96h86l-104 145h-90l-106 -145h77z" />
    <glyph glyph-name="aring" 
d="M479 0q-3 19 -4.5 40t-2 39t-1 31t-0.5 16l4 240q0 17 -2.5 35.5t-14.5 41.5q-10 19 -29 33t-43 23t-51.5 13.5t-54.5 4.5q-20 0 -42.5 -2.5t-44 -8.5t-41.5 -16.5t-34 -26.5q-22 -26 -27.5 -50.5t-7.5 -44.5h94q0 7 2.5 21.5t12.5 28.5t30 24.5t56 10.5q20 0 46.5 -7
t40.5 -26q7 -8 10.5 -18t5 -22.5t2 -30t0.5 -40.5q-22 2 -36 2.5t-32 0.5q-15 0 -36.5 -1t-45.5 -4.5t-48 -10t-44 -17.5q-28 -16 -45 -35.5t-26.5 -39t-13 -38.5t-3.5 -34q0 -31 11.5 -58t34 -47t55.5 -31.5t76 -11.5q16 0 35.5 2.5t40.5 12t41.5 27.5t37.5 49q0 -20 2 -38
t7 -37h85zM329 247q17 0 29 -0.5t25 -2.5q-1 -26 -2 -45.5t-3 -34.5t-6.5 -27t-12.5 -25q-35 -54 -107 -54q-32 0 -52 9t-31.5 22.5t-16 28.5t-4.5 27q0 38 23 59t53.5 30.5t60.5 11t44 1.5zM180 669q0 -41 28.5 -69.5t69.5 -28.5t69.5 28.5t28.5 69.5t-28.5 69.5
t-69.5 28.5t-69.5 -28.5t-28.5 -69.5zM220 669q0 24 17 41t41 17t41 -17t17 -41t-17 -41t-41 -17t-41 17t-17 41z" />
    <glyph glyph-name="lessequal" unicode="&#x2264;" horiz-adv-x="584" 
d="M37 267l510 -181v83l-403 139l403 142v83l-510 -185v-81zM37 47v-78h510v78h-510z" />
    <glyph glyph-name="agrave" 
d="M479 0q-3 19 -4.5 40t-2 39t-1 31t-0.5 16l4 240q0 17 -2.5 35.5t-14.5 41.5q-10 19 -29 33t-43 23t-51.5 13.5t-54.5 4.5q-20 0 -42.5 -2.5t-44 -8.5t-41.5 -16.5t-34 -26.5q-22 -26 -27.5 -50.5t-7.5 -44.5h94q0 7 2.5 21.5t12.5 28.5t30 24.5t56 10.5q20 0 46.5 -7
t40.5 -26q7 -8 10.5 -18t5 -22.5t2 -30t0.5 -40.5q-22 2 -36 2.5t-32 0.5q-15 0 -36.5 -1t-45.5 -4.5t-48 -10t-44 -17.5q-28 -16 -45 -35.5t-26.5 -39t-13 -38.5t-3.5 -34q0 -31 11.5 -58t34 -47t55.5 -31.5t76 -11.5q16 0 35.5 2.5t40.5 12t41.5 27.5t37.5 49q0 -20 2 -38
t7 -37h85zM329 247q17 0 29 -0.5t25 -2.5q-1 -26 -2 -45.5t-3 -34.5t-6.5 -27t-12.5 -25q-35 -54 -107 -54q-32 0 -52 9t-31.5 22.5t-16 28.5t-4.5 27q0 38 23 59t53.5 30.5t60.5 11t44 1.5zM141 740l135 -144h62l-84 144h-113z" />
    <glyph glyph-name="Ugrave" horiz-adv-x="778" 
d="M93 722v-440q0 -41 3.5 -70t9.5 -50t13.5 -35.5t15.5 -26.5q25 -36 58.5 -58.5t68.5 -35t68.5 -17t59.5 -4.5q19 0 48 3t61.5 13.5t64.5 30.5t59 53q22 27 34 55t17.5 53.5t6.5 47t1 36.5v445h-97v-443q0 -20 -3 -54t-21.5 -68t-58 -58.5t-112.5 -24.5q-19 0 -40.5 2.5
t-43.5 10.5t-43 21.5t-38 36.5q-6 8 -11.5 18.5t-10 25.5t-7.5 36t-3 50v447h-100zM252 909l135 -144h62l-84 144h-113z" />
    <glyph glyph-name="questiondown" horiz-adv-x="500" 
d="M438 -123q-52 -21 -88.5 -24.5t-47.5 -3.5q-9 0 -31.5 2t-45.5 12t-40.5 31t-17.5 59q0 22 7 41t21 39.5t35 44t50 54.5q19 21 30 33.5t15.5 22.5t5.5 20t1 25v105h-83v-106q0 -9 -1.5 -16t-6.5 -15l-8.5 -8t-18 -18.5t-18.5 -19.5l-11 -11q-32 -31 -54.5 -55
t-37.5 -46.5t-22 -45.5t-7 -52q0 -32 11.5 -63t33.5 -54q30 -32 77 -47t110 -15q54 0 88.5 8t53.5 13v90zM340 502h-104v-102h104v102z" />
    <glyph glyph-name="cent" 
d="M497 341q-2 36 -12 62t-25 44.5t-32 30t-31 17.5l38 135h-48l-34 -120q-10 2 -21 3.5t-30 1.5q-51 0 -92.5 -19t-69.5 -48q-38 -41 -53 -94t-15 -110q0 -29 5 -64t19.5 -69.5t41.5 -63.5t71 -45l-42 -148h49l39 136q13 -2 25.5 -2.5t15.5 -0.5q48 0 85 14.5t63 39
t40.5 57t16.5 69.5h-95q-2 -54 -32.5 -82t-77.5 -28q-7 0 -11 0.5t-11 2.5l100 353q17 -20 21.5 -40t6.5 -32h95zM230 78q-18 13 -29.5 35t-18 47.5t-8.5 51.5t-2 48q0 61 11 92.5t25 49.5q35 44 90 44q14 0 22 -2t13 -4z" />
    <glyph glyph-name="fi" unicode="&#xfb01;" horiz-adv-x="611" 
d="M411 618h112v102h-112v-102zM514 0v502h-93v-502h93zM339 727q-15 2 -36 4.5t-41 2.5q-48 0 -78.5 -15t-47.5 -40q-6 -10 -10.5 -20t-6.5 -23.5t-3 -32t-1 -44.5v-57h-99v-68h99v-434h93v434h117v68h-117v79q0 13 1 26t8.5 23.5t22.5 17t44 6.5q14 0 28.5 -0.5t26.5 -1.5
v75z" />
    <glyph glyph-name="oslash" horiz-adv-x="611" 
d="M477 597l-61 -103q-56 21 -117 21q-62 0 -108.5 -21t-77.5 -57.5t-46.5 -85t-15.5 -103.5q0 -53 10.5 -90.5t25 -63t30 -40.5t24.5 -23l-80 -135h59l65 109q46 -22 113 -22q64 0 111.5 21.5t79 58t47.5 85t16 103.5q0 27 -4 55.5t-14 57t-28 55.5t-46 49l77 129h-60z
M187 109q-21 30 -29.5 70t-8.5 73q0 35 8.5 70t27.5 62.5t48 44.5t70 17q38 0 74 -18zM415 393q23 -31 30 -68t7 -75q0 -51 -12.5 -88t-33.5 -61t-48.5 -36t-57.5 -12t-48.5 7.5t-26.5 12.5z" />
    <glyph glyph-name="Ograve" horiz-adv-x="778" 
d="M59 356q0 -74 16.5 -141.5t54.5 -119t100.5 -82t154.5 -30.5q96 0 160.5 33t103 87.5t54.5 123.5t16 141q0 92 -23 161.5t-65 116.5t-102.5 71t-135.5 24q-25 0 -55.5 -4t-62 -14.5t-63.5 -29.5t-60 -49q-30 -32 -48 -69.5t-28 -75.5t-13.5 -75t-3.5 -68zM164 362
q0 55 10 108.5t36 94.5t70.5 66.5t113.5 25.5q62 0 104 -22t67.5 -60.5t36.5 -91.5t11 -114q0 -18 -2 -47t-8.5 -62t-19.5 -66t-35 -60q-32 -38 -73.5 -52t-86.5 -14q-43 0 -86 14t-74 52q-38 47 -51 107.5t-13 120.5zM252 909l135 -144h62l-84 144h-113z" />
    <glyph glyph-name="Otilde" horiz-adv-x="778" 
d="M59 356q0 -74 16.5 -141.5t54.5 -119t100.5 -82t154.5 -30.5q96 0 160.5 33t103 87.5t54.5 123.5t16 141q0 92 -23 161.5t-65 116.5t-102.5 71t-135.5 24q-25 0 -55.5 -4t-62 -14.5t-63.5 -29.5t-60 -49q-30 -32 -48 -69.5t-28 -75.5t-13.5 -75t-3.5 -68zM164 362
q0 55 10 108.5t36 94.5t70.5 66.5t113.5 25.5q62 0 104 -22t67.5 -60.5t36.5 -91.5t11 -114q0 -18 -2 -47t-8.5 -62t-19.5 -66t-35 -60q-32 -38 -73.5 -52t-86.5 -14q-43 0 -86 14t-74 52q-38 47 -51 107.5t-13 120.5zM290 781q7 22 17 29t21 7q5 0 20 -4.5t30 -8.5
q22 -7 35.5 -10t27.5 -3q13 0 28.5 5t28 16.5t20.5 31t7 48.5h-41q0 -17 -9.5 -27t-27.5 -10q-9 0 -17.5 2t-19.5 5q-21 6 -33.5 9t-20 5t-12.5 2.5t-11 0.5q-38 0 -61 -28q-22 -27 -24 -70h42z" />
    <glyph glyph-name="fl" unicode="&#xfb02;" horiz-adv-x="611" 
d="M419 0h94v721h-94v-721zM339 727q-15 2 -36 4.5t-41 2.5q-48 0 -78.5 -15t-47.5 -40q-6 -10 -10.5 -20t-6.5 -23.5t-3 -32t-1 -44.5v-57h-99v-68h99v-434h93v434h117v68h-117v79q0 13 1 26t8.5 23.5t22.5 17t44 6.5q14 0 28.5 -0.5t26.5 -1.5v75z" />
    <glyph glyph-name="ntilde" horiz-adv-x="611" 
d="M91 0h94v289q0 38 11 66t29 47t41.5 28t49.5 9q24 0 47.5 -8.5t41.5 -25.5q17 -17 22 -39t5 -47v-319h96v341q0 58 -22 92t-52 51.5t-60.5 22.5t-47.5 5q-43 0 -72 -11.5t-47.5 -26.5t-28 -30t-13.5 -23l-1 81h-94l1 -58v-444zM207 612q7 22 17 29t21 7q5 0 20 -4.5
t30 -8.5q22 -7 35.5 -10t27.5 -3q13 0 28.5 5t28 16.5t20.5 31t7 48.5h-41q0 -17 -9.5 -27t-27.5 -10q-9 0 -17.5 2t-19.5 5q-21 6 -33.5 9t-20 5t-12.5 2.5t-11 0.5q-38 0 -61 -28q-22 -27 -24 -70h42z" />
    <glyph glyph-name="AE" horiz-adv-x="1000" 
d="M547 201l34 -201h373v86h-287l-42 243h304v85h-319l-38 223h371v85h-520l-421 -722h110l115 201h320zM273 282l202 366l57 -366h-259z" />
    <glyph glyph-name="circumflex" unicode="&#x2c6;" horiz-adv-x="278" 
d="M64 596l71 96l66 -96h86l-104 145h-90l-106 -145h77z" />
    <glyph glyph-name="Ucircumflex" horiz-adv-x="778" 
d="M93 722v-440q0 -41 3.5 -70t9.5 -50t13.5 -35.5t15.5 -26.5q25 -36 58.5 -58.5t68.5 -35t68.5 -17t59.5 -4.5q19 0 48 3t61.5 13.5t64.5 30.5t59 53q22 27 34 55t17.5 53.5t6.5 47t1 36.5v445h-97v-443q0 -20 -3 -54t-21.5 -68t-58 -58.5t-112.5 -24.5q-19 0 -40.5 2.5
t-43.5 10.5t-43 21.5t-38 36.5q-6 8 -11.5 18.5t-10 25.5t-7.5 36t-3 50v447h-100zM314 765l71 96l66 -96h86l-104 145h-90l-106 -145h77z" />
    <glyph glyph-name="notequal" unicode="&#x2260;" horiz-adv-x="584" 
d="M215 189h-178v-78h138l-59 -112l68 -35l76 147h287v78h-247l66 125h181v77h-141l59 114l-67 35l-78 -149h-283v-77h243z" />
    <glyph glyph-name="summation" unicode="&#x2211;" horiz-adv-x="620" 
d="M583 786h-544v-68l305 -428l-319 -436v-68h570v77h-465l315 427l-297 419h435v77z" />
    <glyph glyph-name="ordmasculine" horiz-adv-x="367" 
d="M208 740q-44 0 -75 -13.5t-51 -36t-29 -52t-9 -60.5q0 -30 9 -58.5t28.5 -50.5t50.5 -35.5t75 -13.5q39 0 69 12t51 34t32 51t11 64q0 22 -6 50t-24 52t-49.5 40.5t-82.5 16.5zM206 463q-29 0 -47.5 11.5t-30 29t-16 38.5t-4.5 40q0 21 5.5 41.5t18 37t31.5 27t46 10.5
q30 0 48.5 -11t29 -28t14.5 -37t4 -39q0 -33 -9 -56t-23 -37t-31.5 -20.5t-35.5 -6.5z" />
    <glyph glyph-name="partialdiff" unicode="&#x2202;" horiz-adv-x="519" 
d="M110 592q9 7 20 15t25.5 15t31.5 12t38 5q37 0 68.5 -17t54.5 -52.5t35.5 -89t10.5 -126.5q-41 44 -83 58.5t-75 14.5q-39 0 -75.5 -14t-64.5 -41t-45 -67t-17 -93q0 -45 14 -86t41 -72t65.5 -49.5t86.5 -18.5q58 0 98 22t66 57t40.5 77.5t21.5 83.5t8.5 75.5t1.5 52.5
q0 102 -24 170t-61.5 108.5t-82 57t-86.5 16.5q-31 0 -56 -6.5t-44.5 -16t-33.5 -20t-23 -17.5zM390 280q0 -46 -10 -87.5t-28.5 -73t-46 -50t-62.5 -18.5q-23 0 -46 9.5t-41.5 28.5t-30 48.5t-11.5 70.5q0 37 10.5 66t28.5 48t42 29t51 10q29 0 53 -9.5t42 -22.5t30.5 -27
t18.5 -22z" />
    <glyph glyph-name="Egrave" horiz-adv-x="611" 
d="M76 0h461v88h-361v240h336v84h-336v225h353v85h-453v-722zM169 909l135 -144h62l-84 144h-113z" />
    <glyph glyph-name="florin" unicode="&#x192;" 
d="M137 417l-12 -67h90l-58 -301q-9 -41 -14.5 -66t-9 -41t-7 -24.5t-7.5 -15.5q-5 -9 -19.5 -19t-37.5 -10q-5 0 -8.5 0.5t-7.5 1.5l-12 -72q61 -3 97.5 10t57.5 41.5t31.5 71.5t21.5 99l61 325h103l14 67h-105l23 108q3 16 8.5 31.5t15.5 27.5t25.5 19.5t37.5 7.5
q10 0 19 -1t16 -2l11 70q-17 3 -28.5 4.5t-25.5 1.5q-24 0 -56 -7.5t-58 -30.5q-23 -21 -33.5 -52t-18.5 -67l-23 -110h-91z" />
    <glyph glyph-name="ograve" horiz-adv-x="611" 
d="M51 245q0 -55 15 -103t46 -83t77.5 -55.5t108.5 -20.5q64 0 112 21.5t79.5 58t47 85.5t15.5 104q0 39 -10 85t-37.5 85.5t-75.5 66t-123 26.5q-74 0 -123 -25t-78.5 -64t-41.5 -87t-12 -94zM149 251q0 59 16 97t40 59.5t51 30t50 8.5q66 0 106 -48.5t40 -142.5
q0 -57 -14 -95.5t-35.5 -62t-48.5 -34t-54 -10.5q-40 0 -68.5 16.5t-47 44t-27 63t-8.5 74.5zM169 740l135 -144h62l-84 144h-113z" />
    <glyph glyph-name="egrave" 
d="M506 234v49t-5.5 60.5t-18.5 62t-37 55t-62.5 39.5t-94.5 15q-11 0 -27 -1t-34.5 -5t-38 -11t-37.5 -20q-59 -41 -79 -101.5t-20 -134.5q0 -119 57 -188t176 -69q38 0 66.5 7t49.5 17t35 22t22 21q27 29 34 57.5t9 47.5h-94q-6 -54 -39 -79t-79 -25q-39 0 -66.5 13.5
t-45 38t-25.5 57.5t-7 72h361zM149 300q1 42 14 70t32.5 45.5t43.5 25t47 7.5q43 0 68 -16.5t37.5 -39.5t15.5 -48.5t3 -43.5h-261zM141 740l135 -144h62l-84 144h-113z" />
    <glyph glyph-name="Igrave" horiz-adv-x="278" 
d="M88 0h100v722h-100v-722zM2 909l135 -144h62l-84 144h-113z" />
    <glyph glyph-name="Ntilde" horiz-adv-x="778" 
d="M95 0h91v613l367 -613h128v722h-92v-597l-355 597h-139v-722zM290 753q7 22 17 29t21 7q5 0 20 -4.5t30 -8.5q22 -7 35.5 -10t27.5 -3q13 0 28.5 5t28 16.5t20.5 31t7 48.5h-41q0 -17 -9.5 -27t-27.5 -10q-9 0 -17.5 2t-19.5 5q-21 6 -33.5 9t-20 5t-12.5 2.5t-11 0.5
q-38 0 -61 -28q-22 -27 -24 -70h42z" />
    <glyph glyph-name="greaterequal" unicode="&#x2265;" horiz-adv-x="584" 
d="M547 267v81l-510 185v-83l403 -142l-403 -139v-83zM547 47h-510v-78h510v78z" />
    <glyph glyph-name="Oslash" horiz-adv-x="778" 
d="M638 799l-67 -104q-10 6 -25.5 14t-37 15t-51 12t-66.5 5q-66 0 -127 -21.5t-107 -68.5q-31 -32 -50.5 -70t-30 -77t-14 -77t-3.5 -69q0 -73 11.5 -124t28 -86t34.5 -56t30 -33l-95 -147h63l74 115q13 -7 29.5 -14.5t38.5 -14t50 -11t65 -4.5q67 0 118 17t87.5 45.5
t61 66.5t38.5 80.5t20 86.5t6 84t-4.5 81t-16.5 80t-32.5 74.5t-51.5 64.5l86 136h-62zM219 147q-33 47 -44 102t-11 112q0 54 10 107t35.5 95t69.5 68t112 26q30 0 52 -4t38 -10t26 -12.5t16 -11.5zM559 579q32 -46 43 -100.5t11 -111.5q0 -53 -9.5 -106.5t-34 -96.5
t-68 -69.5t-112.5 -26.5q-35 0 -70 8t-63 31z" />
    <glyph glyph-name="idieresis" horiz-adv-x="278" 
d="M89 0h94v502h-94v-502zM-3 617h92v102h-92v-102zM186 617h93v102h-93v-102z" />
    <glyph glyph-name="yen" 
d="M44 164h183v-164h101v164h183v61h-183v55h183v62h-151l196 380h-113l-161 -354l-158 354h-124l198 -380h-154v-62h183v-55h-183v-61z" />
    <glyph glyph-name="Atilde" horiz-adv-x="722" 
d="M9 0h103l78 188h335l78 -188h109l-292 722h-107zM362 623l133 -354h-273zM262 753q7 22 17 29t21 7q5 0 20 -4.5t30 -8.5q22 -7 35.5 -10t27.5 -3q13 0 28.5 5t28 16.5t20.5 31t7 48.5h-41q0 -17 -9.5 -27t-27.5 -10q-9 0 -17.5 2t-19.5 5q-21 6 -33.5 9t-20 5t-12.5 2.5
t-11 0.5q-38 0 -61 -28q-22 -27 -24 -70h42z" />
    <glyph glyph-name="macron" unicode="&#x2c9;" horiz-adv-x="278" 
d="M0 642h275v53h-275v-53z" />
    <glyph glyph-name="lozenge" unicode="&#x25ca;" horiz-adv-x="593" 
d="M334 737h-77l-172 -391l172 -391h77l173 391zM426 346l-130 -310l-129 310l129 310z" />
    <glyph glyph-name="exclamdown" horiz-adv-x="389" 
d="M134 402h106v100h-106v-100zM148 337l-21 -557h111l-17 557h-73z" />
    <glyph glyph-name="Agrave" horiz-adv-x="722" 
d="M9 0h103l78 188h335l78 -188h109l-292 722h-107zM362 623l133 -354h-273zM224 909l135 -144h62l-84 144h-113z" />
    <glyph glyph-name="otilde" horiz-adv-x="611" 
d="M51 245q0 -55 15 -103t46 -83t77.5 -55.5t108.5 -20.5q64 0 112 21.5t79.5 58t47 85.5t15.5 104q0 39 -10 85t-37.5 85.5t-75.5 66t-123 26.5q-74 0 -123 -25t-78.5 -64t-41.5 -87t-12 -94zM149 251q0 59 16 97t40 59.5t51 30t50 8.5q66 0 106 -48.5t40 -142.5
q0 -57 -14 -95.5t-35.5 -62t-48.5 -34t-54 -10.5q-40 0 -68.5 16.5t-47 44t-27 63t-8.5 74.5zM207 612q7 22 17 29t21 7q5 0 20 -4.5t30 -8.5q22 -7 35.5 -10t27.5 -3q13 0 28.5 5t28 16.5t20.5 31t7 48.5h-41q0 -17 -9.5 -27t-27.5 -10q-9 0 -17.5 2t-19.5 5q-21 6 -33.5 9
t-20 5t-12.5 2.5t-11 0.5q-38 0 -61 -28q-22 -27 -24 -70h42z" />
    <glyph glyph-name="space" unicode=" " horiz-adv-x="278" 
 />
    <glyph glyph-name="space" unicode="&#xa0;" horiz-adv-x="278" 
 />
    <glyph glyph-name="OE" unicode="&#x152;" horiz-adv-x="667" 
d="M56 211q0 -13 1 -30t5 -36t12.5 -39.5t23.5 -40.5q21 -27 51 -43.5t61.5 -25t61 -11t50.5 -2.5q69 0 122.5 17t89.5 47.5t54.5 71.5t18.5 89q0 11 -2 29t-9 38t-21.5 40t-39.5 37q-16 10 -30 17t-37.5 14.5t-62.5 17.5t-103 27q-33 8 -57.5 16.5t-40.5 20.5t-24 29t-8 41
q0 54 42.5 85.5t117.5 31.5q27 0 53 -4.5t47.5 -16.5t35.5 -33.5t16 -55.5h104q-1 11 -2 25.5t-5.5 30.5t-13 33t-23.5 34q-22 24 -49.5 38t-55.5 21.5t-54 9.5t-44 2q-51 0 -100.5 -12.5t-88 -38t-62.5 -65.5t-24 -95q0 -36 15.5 -74t59.5 -68q14 -9 31 -16.5t40 -14.5
t53.5 -15t71.5 -18q38 -9 68.5 -18t52.5 -22t33.5 -32.5t11.5 -49.5q0 -14 -5.5 -35.5t-23 -42.5t-51 -36t-89.5 -15q-62 0 -97 15.5t-51.5 37.5t-20.5 46.5t-5 43.5h-104zM363 909l-82 -144h65l121 144h-104z" />
    <glyph glyph-name="oe" unicode="&#x153;" horiz-adv-x="500" 
d="M43 149q0 -45 16 -76.5t43.5 -50.5t63 -27.5t73.5 -8.5q39 0 77.5 7t71.5 27q28 17 48 51t20 76q0 24 -8.5 48.5t-29.5 44.5q-11 10 -24 17.5t-34.5 15t-55 16t-85.5 20.5q-10 3 -22 6.5t-23 10.5t-18.5 18.5t-7.5 28.5q0 27 14 41.5t32 21.5t34.5 8t21.5 1q13 0 30 -2
t32.5 -10.5t25.5 -25t9 -44.5h96q0 16 -1.5 34t-11.5 39q-11 22 -32 37t-46 24t-52 13t-51 4q-44 0 -80 -11t-61.5 -30.5t-40 -48t-14.5 -62.5q0 -39 15.5 -64t41.5 -41t61.5 -26t74.5 -19q28 -6 49 -12t34.5 -13.5t20 -19.5t6.5 -30q0 -26 -16 -47q-15 -19 -37 -25.5
t-51 -6.5q-34 0 -55.5 9t-34 22.5t-16.5 29.5t-4 30h-99zM273 740l-82 -144h65l121 144h-104z" />
    <glyph glyph-name="Ydieresis" unicode="&#x178;" horiz-adv-x="444" 
d="M30 0h375v73h-277l277 349v80h-361v-71h254l-268 -334v-97zM269 740l-82 -144h65l121 144h-104z" />
    <glyph glyph-name="Scaron" horiz-adv-x="667" 
d="M56 211q0 -13 1 -30t5 -36t12.5 -39.5t23.5 -40.5q21 -27 51 -43.5t61.5 -25t61 -11t50.5 -2.5q69 0 122.5 17t89.5 47.5t54.5 71.5t18.5 89q0 11 -2 29t-9 38t-21.5 40t-39.5 37q-16 10 -30 17t-37.5 14.5t-62.5 17.5t-103 27q-33 8 -57.5 16.5t-40.5 20.5t-24 29t-8 41
q0 54 42.5 85.5t117.5 31.5q27 0 53 -4.5t47.5 -16.5t35.5 -33.5t16 -55.5h104q-1 11 -2 25.5t-5.5 30.5t-13 33t-23.5 34q-22 24 -49.5 38t-55.5 21.5t-54 9.5t-44 2q-51 0 -100.5 -12.5t-88 -38t-62.5 -65.5t-24 -95q0 -36 15.5 -74t59.5 -68q14 -9 31 -16.5t40 -14.5
t53.5 -15t71.5 -18q38 -9 68.5 -18t52.5 -22t33.5 -32.5t11.5 -49.5q0 -14 -5.5 -35.5t-23 -42.5t-51 -36t-89.5 -15q-62 0 -97 15.5t-51.5 37.5t-20.5 46.5t-5 43.5h-104zM285 765h92l104 143h-78l-70 -96l-67 96h-85z" />
    <glyph glyph-name="Scaron" unicode="&#x160;" horiz-adv-x="667" 
d="M56 211q0 -13 1 -30t5 -36t12.5 -39.5t23.5 -40.5q21 -27 51 -43.5t61.5 -25t61 -11t50.5 -2.5q69 0 122.5 17t89.5 47.5t54.5 71.5t18.5 89q0 11 -2 29t-9 38t-21.5 40t-39.5 37q-16 10 -30 17t-37.5 14.5t-62.5 17.5t-103 27q-33 8 -57.5 16.5t-40.5 20.5t-24 29t-8 41
q0 54 42.5 85.5t117.5 31.5q27 0 53 -4.5t47.5 -16.5t35.5 -33.5t16 -55.5h104q-1 11 -2 25.5t-5.5 30.5t-13 33t-23.5 34q-22 24 -49.5 38t-55.5 21.5t-54 9.5t-44 2q-51 0 -100.5 -12.5t-88 -38t-62.5 -65.5t-24 -95q0 -36 15.5 -74t59.5 -68q14 -9 31 -16.5t40 -14.5
t53.5 -15t71.5 -18q38 -9 68.5 -18t52.5 -22t33.5 -32.5t11.5 -49.5q0 -14 -5.5 -35.5t-23 -42.5t-51 -36t-89.5 -15q-62 0 -97 15.5t-51.5 37.5t-20.5 46.5t-5 43.5h-104zM285 765h92l104 143h-78l-70 -96l-67 96h-85z" />
    <glyph glyph-name="Sacute" horiz-adv-x="667" 
d="M56 211q0 -13 1 -30t5 -36t12.5 -39.5t23.5 -40.5q21 -27 51 -43.5t61.5 -25t61 -11t50.5 -2.5q69 0 122.5 17t89.5 47.5t54.5 71.5t18.5 89q0 11 -2 29t-9 38t-21.5 40t-39.5 37q-16 10 -30 17t-37.5 14.5t-62.5 17.5t-103 27q-33 8 -57.5 16.5t-40.5 20.5t-24 29t-8 41
q0 54 42.5 85.5t117.5 31.5q27 0 53 -4.5t47.5 -16.5t35.5 -33.5t16 -55.5h104q-1 11 -2 25.5t-5.5 30.5t-13 33t-23.5 34q-22 24 -49.5 38t-55.5 21.5t-54 9.5t-44 2q-51 0 -100.5 -12.5t-88 -38t-62.5 -65.5t-24 -95q0 -36 15.5 -74t59.5 -68q14 -9 31 -16.5t40 -14.5
t53.5 -15t71.5 -18q38 -9 68.5 -18t52.5 -22t33.5 -32.5t11.5 -49.5q0 -14 -5.5 -35.5t-23 -42.5t-51 -36t-89.5 -15q-62 0 -97 15.5t-51.5 37.5t-20.5 46.5t-5 43.5h-104zM363 909l-82 -144h65l121 144h-104z" />
    <glyph glyph-name="Sacute" unicode="&#x15a;" horiz-adv-x="667" 
d="M56 211q0 -13 1 -30t5 -36t12.5 -39.5t23.5 -40.5q21 -27 51 -43.5t61.5 -25t61 -11t50.5 -2.5q69 0 122.5 17t89.5 47.5t54.5 71.5t18.5 89q0 11 -2 29t-9 38t-21.5 40t-39.5 37q-16 10 -30 17t-37.5 14.5t-62.5 17.5t-103 27q-33 8 -57.5 16.5t-40.5 20.5t-24 29t-8 41
q0 54 42.5 85.5t117.5 31.5q27 0 53 -4.5t47.5 -16.5t35.5 -33.5t16 -55.5h104q-1 11 -2 25.5t-5.5 30.5t-13 33t-23.5 34q-22 24 -49.5 38t-55.5 21.5t-54 9.5t-44 2q-51 0 -100.5 -12.5t-88 -38t-62.5 -65.5t-24 -95q0 -36 15.5 -74t59.5 -68q14 -9 31 -16.5t40 -14.5
t53.5 -15t71.5 -18q38 -9 68.5 -18t52.5 -22t33.5 -32.5t11.5 -49.5q0 -14 -5.5 -35.5t-23 -42.5t-51 -36t-89.5 -15q-62 0 -97 15.5t-51.5 37.5t-20.5 46.5t-5 43.5h-104zM363 909l-82 -144h65l121 144h-104z" />
    <glyph glyph-name="Tcaron" horiz-adv-x="611" 
d="M362 0v637h242v85h-583v-85h242v-637h99zM266 765h93l104 143h-79l-69 -96l-67 96h-86z" />
    <glyph glyph-name="Tcaron" unicode="&#x164;" horiz-adv-x="611" 
d="M362 0v637h242v85h-583v-85h242v-637h99zM266 765h93l104 143h-79l-69 -96l-67 96h-86z" />
    <glyph glyph-name="Zcaron" horiz-adv-x="611" 
d="M35 0h543v88h-428l421 535v99h-525v-88h406l-417 -534v-100zM257 765h93l104 142h-79l-69 -96l-68 96h-85z" />
    <glyph glyph-name="Zcaron" unicode="&#x17d;" horiz-adv-x="611" 
d="M35 0h543v88h-428l421 535v99h-525v-88h406l-417 -534v-100zM257 765h93l104 142h-79l-69 -96l-68 96h-85z" />
    <glyph glyph-name="Zacute" horiz-adv-x="611" 
d="M35 0h543v88h-428l421 535v99h-525v-88h406l-417 -534v-100zM341 909l-82 -144h65l121 144h-104z" />
    <glyph glyph-name="Zacute" unicode="&#x179;" horiz-adv-x="611" 
d="M35 0h543v88h-428l421 535v99h-525v-88h406l-417 -534v-100zM341 909l-82 -144h65l121 144h-104z" />
    <glyph glyph-name="scaron" horiz-adv-x="500" 
d="M43 149q0 -45 16 -76.5t43.5 -50.5t63 -27.5t73.5 -8.5q39 0 77.5 7t71.5 27q28 17 48 51t20 76q0 24 -8.5 48.5t-29.5 44.5q-11 10 -24 17.5t-34.5 15t-55 16t-85.5 20.5q-10 3 -22 6.5t-23 10.5t-18.5 18.5t-7.5 28.5q0 27 14 41.5t32 21.5t34.5 8t21.5 1q13 0 30 -2
t32.5 -10.5t25.5 -25t9 -44.5h96q0 16 -1.5 34t-11.5 39q-11 22 -32 37t-46 24t-52 13t-51 4q-44 0 -80 -11t-61.5 -30.5t-40 -48t-14.5 -62.5q0 -39 15.5 -64t41.5 -41t61.5 -26t74.5 -19q28 -6 49 -12t34.5 -13.5t20 -19.5t6.5 -30q0 -26 -16 -47q-15 -19 -37 -25.5
t-51 -6.5q-34 0 -55.5 9t-34 22.5t-16.5 29.5t-4 30h-99zM201 596h93l104 143h-79l-69 -96l-67 96h-86z" />
    <glyph glyph-name="scaron" unicode="&#x161;" horiz-adv-x="500" 
d="M43 149q0 -45 16 -76.5t43.5 -50.5t63 -27.5t73.5 -8.5q39 0 77.5 7t71.5 27q28 17 48 51t20 76q0 24 -8.5 48.5t-29.5 44.5q-11 10 -24 17.5t-34.5 15t-55 16t-85.5 20.5q-10 3 -22 6.5t-23 10.5t-18.5 18.5t-7.5 28.5q0 27 14 41.5t32 21.5t34.5 8t21.5 1q13 0 30 -2
t32.5 -10.5t25.5 -25t9 -44.5h96q0 16 -1.5 34t-11.5 39q-11 22 -32 37t-46 24t-52 13t-51 4q-44 0 -80 -11t-61.5 -30.5t-40 -48t-14.5 -62.5q0 -39 15.5 -64t41.5 -41t61.5 -26t74.5 -19q28 -6 49 -12t34.5 -13.5t20 -19.5t6.5 -30q0 -26 -16 -47q-15 -19 -37 -25.5
t-51 -6.5q-34 0 -55.5 9t-34 22.5t-16.5 29.5t-4 30h-99zM201 596h93l104 143h-79l-69 -96l-67 96h-86z" />
    <glyph glyph-name="sacute" horiz-adv-x="500" 
d="M43 149q0 -45 16 -76.5t43.5 -50.5t63 -27.5t73.5 -8.5q39 0 77.5 7t71.5 27q28 17 48 51t20 76q0 24 -8.5 48.5t-29.5 44.5q-11 10 -24 17.5t-34.5 15t-55 16t-85.5 20.5q-10 3 -22 6.5t-23 10.5t-18.5 18.5t-7.5 28.5q0 27 14 41.5t32 21.5t34.5 8t21.5 1q13 0 30 -2
t32.5 -10.5t25.5 -25t9 -44.5h96q0 16 -1.5 34t-11.5 39q-11 22 -32 37t-46 24t-52 13t-51 4q-44 0 -80 -11t-61.5 -30.5t-40 -48t-14.5 -62.5q0 -39 15.5 -64t41.5 -41t61.5 -26t74.5 -19q28 -6 49 -12t34.5 -13.5t20 -19.5t6.5 -30q0 -26 -16 -47q-15 -19 -37 -25.5
t-51 -6.5q-34 0 -55.5 9t-34 22.5t-16.5 29.5t-4 30h-99zM273 740l-82 -144h65l121 144h-104z" />
    <glyph glyph-name="sacute" unicode="&#x15b;" horiz-adv-x="500" 
d="M43 149q0 -45 16 -76.5t43.5 -50.5t63 -27.5t73.5 -8.5q39 0 77.5 7t71.5 27q28 17 48 51t20 76q0 24 -8.5 48.5t-29.5 44.5q-11 10 -24 17.5t-34.5 15t-55 16t-85.5 20.5q-10 3 -22 6.5t-23 10.5t-18.5 18.5t-7.5 28.5q0 27 14 41.5t32 21.5t34.5 8t21.5 1q13 0 30 -2
t32.5 -10.5t25.5 -25t9 -44.5h96q0 16 -1.5 34t-11.5 39q-11 22 -32 37t-46 24t-52 13t-51 4q-44 0 -80 -11t-61.5 -30.5t-40 -48t-14.5 -62.5q0 -39 15.5 -64t41.5 -41t61.5 -26t74.5 -19q28 -6 49 -12t34.5 -13.5t20 -19.5t6.5 -30q0 -26 -16 -47q-15 -19 -37 -25.5
t-51 -6.5q-34 0 -55.5 9t-34 22.5t-16.5 29.5t-4 30h-99zM273 740l-82 -144h65l121 144h-104z" />
    <glyph glyph-name="tcaron" horiz-adv-x="333" 
d="M11 435h89v-335q0 -62 31 -84.5t96 -22.5q26 0 45.5 2t32.5 4v73q-6 -2 -18.5 -3.5t-26.5 -1.5q-25 0 -38.5 7t-20 17t-7.5 22t-1 21v301h112v69h-112v135l-93 -30v-105h-89v-69zM243 721v-87h51q0 -11 -1.5 -23.5t-7 -24t-15.5 -20.5t-27 -12v-36q29 3 47.5 14.5
t29 28.5t14.5 37.5t4 41.5v81h-95z" />
    <glyph glyph-name="tcaron" unicode="&#x165;" horiz-adv-x="333" 
d="M11 435h89v-335q0 -62 31 -84.5t96 -22.5q26 0 45.5 2t32.5 4v73q-6 -2 -18.5 -3.5t-26.5 -1.5q-25 0 -38.5 7t-20 17t-7.5 22t-1 21v301h112v69h-112v135l-93 -30v-105h-89v-69zM243 721v-87h51q0 -11 -1.5 -23.5t-7 -24t-15.5 -20.5t-27 -12v-36q29 3 47.5 14.5
t29 28.5t14.5 37.5t4 41.5v81h-95z" />
    <glyph glyph-name="zcaron" horiz-adv-x="444" 
d="M30 0h375v73h-277l277 349v80h-361v-71h254l-268 -334v-97zM173 596h93l104 143h-79l-69 -96l-67 96h-86z" />
    <glyph glyph-name="zcaron" unicode="&#x17e;" horiz-adv-x="444" 
d="M30 0h375v73h-277l277 349v80h-361v-71h254l-268 -334v-97zM173 596h93l104 143h-79l-69 -96l-67 96h-86z" />
    <glyph glyph-name="zacute" horiz-adv-x="444" 
d="M30 0h375v73h-277l277 349v80h-361v-71h254l-268 -334v-97zM269 740l-82 -144h65l121 144h-104z" />
    <glyph glyph-name="zacute" unicode="&#x17a;" horiz-adv-x="444" 
d="M30 0h375v73h-277l277 349v80h-361v-71h254l-268 -334v-97zM269 740l-82 -144h65l121 144h-104z" />
    <glyph glyph-name="Lslash" unicode="&#xa3;" 
d="M93 0h435v89h-336v277l193 120v73l-193 -120v283h-99v-345l-74 -45v-74l74 46v-304z" />
    <glyph glyph-name="Lslash" unicode="&#x141;" 
d="M93 0h435v89h-336v277l193 120v73l-193 -120v283h-99v-345l-74 -45v-74l74 46v-304z" />
    <glyph glyph-name="Aogonek" unicode="&#xa5;" horiz-adv-x="722" 
d="M362 623l133 -354h-273zM9 0h103l78 188h335l78 -188h37q-49 -22 -84 -52.5t-35 -71.5q0 -12 4.5 -25t15.5 -24t29 -18t45 -7q34 0 55 8t39 17v41q-8 -5 -18 -8.5t-27 -3.5q-3 0 -13.5 1t-21.5 5.5t-20 14.5t-9 29q0 15 7 28t18.5 24t26 21.5t29.5 20.5h31l-292 722h-107
z" />
    <glyph glyph-name="Aogonek" unicode="&#x104;" horiz-adv-x="722" 
d="M362 623l133 -354h-273zM9 0h103l78 188h335l78 -188h37q-49 -22 -84 -52.5t-35 -71.5q0 -12 4.5 -25t15.5 -24t29 -18t45 -7q34 0 55 8t39 17v41q-8 -5 -18 -8.5t-27 -3.5q-3 0 -13.5 1t-21.5 5.5t-20 14.5t-9 29q0 15 7 28t18.5 24t26 21.5t29.5 20.5h31l-292 722h-107
z" />
    <glyph glyph-name="brokenbar" unicode="&#xa6;" horiz-adv-x="260" 
d="M89 -89h83v250h-83v-250zM89 411h83v250h-83v-250z" />
    <glyph glyph-name="Scommaaccent" horiz-adv-x="667" 
d="M56 211q0 -13 1 -30t5 -36t12.5 -39.5t23.5 -40.5q21 -27 51 -43.5t61.5 -25t61 -11t50.5 -2.5q69 0 122.5 17t89.5 47.5t54.5 71.5t18.5 89q0 11 -2 29t-9 38t-21.5 40t-39.5 37q-16 10 -30 17t-37.5 14.5t-62.5 17.5t-103 27q-33 8 -57.5 16.5t-40.5 20.5t-24 29t-8 41
q0 54 42.5 85.5t117.5 31.5q27 0 53 -4.5t47.5 -16.5t35.5 -33.5t16 -55.5h104q-1 11 -2 25.5t-5.5 30.5t-13 33t-23.5 34q-22 24 -49.5 38t-55.5 21.5t-54 9.5t-44 2q-51 0 -100.5 -12.5t-88 -38t-62.5 -65.5t-24 -95q0 -36 15.5 -74t59.5 -68q14 -9 31 -16.5t40 -14.5
t53.5 -15t71.5 -18q38 -9 68.5 -18t52.5 -22t33.5 -32.5t11.5 -49.5q0 -14 -5.5 -35.5t-23 -42.5t-51 -36t-89.5 -15q-62 0 -97 15.5t-51.5 37.5t-20.5 46.5t-5 43.5h-104zM287 -51v-97h51q0 -14 -1.5 -30t-7 -30t-15.5 -24.5t-27 -14.5v-40q30 3 48.5 16.5t29 34t14 45
t3.5 50.5v90h-95z" />
    <glyph glyph-name="Zdotaccent" unicode="&#xaf;" horiz-adv-x="611" 
d="M35 0h543v88h-428l421 535v99h-525v-88h406l-417 -534v-100zM272 786h92v102h-92v-102z" />
    <glyph glyph-name="Zdotaccent" unicode="&#x17b;" horiz-adv-x="611" 
d="M35 0h543v88h-428l421 535v99h-525v-88h406l-417 -534v-100zM272 786h92v102h-92v-102z" />
    <glyph glyph-name="lslash" unicode="&#xb3;" horiz-adv-x="278" 
d="M90 0h94v357l66 41v72l-66 -41v292h-94v-350l-66 -41v-72l66 41v-299z" />
    <glyph glyph-name="lslash" unicode="&#x142;" horiz-adv-x="278" 
d="M90 0h94v357l66 41v72l-66 -41v292h-94v-350l-66 -41v-72l66 41v-299z" />
    <glyph glyph-name="aogonek" unicode="&#xb9;" 
d="M383 244q-1 -26 -2 -45.5t-3 -34.5t-6.5 -27t-12.5 -25q-35 -54 -107 -54q-32 0 -52 9t-31.5 22.5t-16 28.5t-4.5 27q0 38 23 59t53.5 30.5t60.5 11t44 1.5q17 0 29 -0.5t25 -2.5zM177 368q0 7 2.5 21.5t12.5 28.5t30 24.5t56 10.5q20 0 46.5 -7t40.5 -26q7 -8 10.5 -18
t5 -22.5t2 -30t0.5 -40.5q-22 2 -36 2.5t-32 0.5q-15 0 -36.5 -1t-45.5 -4.5t-48 -10t-44 -17.5q-28 -16 -45 -35.5t-26.5 -39t-13 -38.5t-3.5 -34q0 -31 11.5 -58t34 -47t55.5 -31.5t76 -11.5q16 0 35.5 2.5t40.5 12t41.5 27.5t37.5 49q0 -20 2 -38t7 -37h21
q-49 -22 -84 -52.5t-35 -71.5q0 -12 4.5 -25t15.5 -24t29 -18t45 -7q34 0 55 8t39 17v41q-8 -5 -18 -8.5t-27 -3.5q-3 0 -13.5 1t-21.5 5.5t-20 14.5t-9 29q0 16 7 29t18.5 24t26 21t29.5 20h23q-3 19 -4.5 40t-2 39t-1 31t-0.5 16l4 240q0 17 -2.5 35.5t-14.5 41.5
q-10 19 -29 33t-43 23t-51.5 13.5t-54.5 4.5q-20 0 -42.5 -2.5t-44 -8.5t-41.5 -16.5t-34 -26.5q-22 -26 -27.5 -50.5t-7.5 -44.5h94z" />
    <glyph glyph-name="aogonek" unicode="&#x105;" 
d="M383 244q-1 -26 -2 -45.5t-3 -34.5t-6.5 -27t-12.5 -25q-35 -54 -107 -54q-32 0 -52 9t-31.5 22.5t-16 28.5t-4.5 27q0 38 23 59t53.5 30.5t60.5 11t44 1.5q17 0 29 -0.5t25 -2.5zM177 368q0 7 2.5 21.5t12.5 28.5t30 24.5t56 10.5q20 0 46.5 -7t40.5 -26q7 -8 10.5 -18
t5 -22.5t2 -30t0.5 -40.5q-22 2 -36 2.5t-32 0.5q-15 0 -36.5 -1t-45.5 -4.5t-48 -10t-44 -17.5q-28 -16 -45 -35.5t-26.5 -39t-13 -38.5t-3.5 -34q0 -31 11.5 -58t34 -47t55.5 -31.5t76 -11.5q16 0 35.5 2.5t40.5 12t41.5 27.5t37.5 49q0 -20 2 -38t7 -37h21
q-49 -22 -84 -52.5t-35 -71.5q0 -12 4.5 -25t15.5 -24t29 -18t45 -7q34 0 55 8t39 17v41q-8 -5 -18 -8.5t-27 -3.5q-3 0 -13.5 1t-21.5 5.5t-20 14.5t-9 29q0 16 7 29t18.5 24t26 21t29.5 20h23q-3 19 -4.5 40t-2 39t-1 31t-0.5 16l4 240q0 17 -2.5 35.5t-14.5 41.5
q-10 19 -29 33t-43 23t-51.5 13.5t-54.5 4.5q-20 0 -42.5 -2.5t-44 -8.5t-41.5 -16.5t-34 -26.5q-22 -26 -27.5 -50.5t-7.5 -44.5h94z" />
    <glyph glyph-name="scommaaccent" horiz-adv-x="500" 
d="M43 149q0 -45 16 -76.5t43.5 -50.5t63 -27.5t73.5 -8.5q39 0 77.5 7t71.5 27q28 17 48 51t20 76q0 24 -8.5 48.5t-29.5 44.5q-11 10 -24 17.5t-34.5 15t-55 16t-85.5 20.5q-10 3 -22 6.5t-23 10.5t-18.5 18.5t-7.5 28.5q0 27 14 41.5t32 21.5t34.5 8t21.5 1q13 0 30 -2
t32.5 -10.5t25.5 -25t9 -44.5h96q0 16 -1.5 34t-11.5 39q-11 22 -32 37t-46 24t-52 13t-51 4q-44 0 -80 -11t-61.5 -30.5t-40 -48t-14.5 -62.5q0 -39 15.5 -64t41.5 -41t61.5 -26t74.5 -19q28 -6 49 -12t34.5 -13.5t20 -19.5t6.5 -30q0 -26 -16 -47q-15 -19 -37 -25.5
t-51 -6.5q-34 0 -55.5 9t-34 22.5t-16.5 29.5t-4 30h-99zM203 -148h51q0 -14 -1.5 -30t-7 -30t-15.5 -24.5t-27 -14.5v-40q30 3 48.5 16.5t29 34t14 45t3.5 50.5v90h-95v-97z" />
    <glyph glyph-name="Lcaron" unicode="&#xbc;" 
d="M93 0h435v89h-336v633h-99v-722zM242 721v-97h51q0 -14 -1.5 -30t-7 -30t-15.5 -24.5t-27 -14.5v-40q30 3 48.5 16.5t29 34t14 45t3.5 50.5v90h-95z" />
    <glyph glyph-name="Lcaron" unicode="&#x13d;" 
d="M93 0h435v89h-336v633h-99v-722zM242 721v-97h51q0 -14 -1.5 -30t-7 -30t-15.5 -24.5t-27 -14.5v-40q30 3 48.5 16.5t29 34t14 45t3.5 50.5v90h-95z" />
    <glyph glyph-name="lcaron" unicode="&#xbe;" horiz-adv-x="324" 
d="M90 0h94v721h-94v-721zM234 721v-97h51q0 -14 -1.5 -30t-7 -30t-15.5 -24.5t-27 -14.5v-40q30 3 48.5 16.5t29 34t14 45t3.5 50.5v90h-95z" />
    <glyph glyph-name="lcaron" unicode="&#x13e;" horiz-adv-x="324" 
d="M90 0h94v721h-94v-721zM234 721v-97h51q0 -14 -1.5 -30t-7 -30t-15.5 -24.5t-27 -14.5v-40q30 3 48.5 16.5t29 34t14 45t3.5 50.5v90h-95z" />
    <glyph glyph-name="zdotaccent" unicode="&#xbf;" horiz-adv-x="444" 
d="M30 0h375v73h-277l277 349v80h-361v-71h254l-268 -334v-97zM188 617h92v102h-92v-102z" />
    <glyph glyph-name="zdotaccent" unicode="&#x17c;" horiz-adv-x="444" 
d="M30 0h375v73h-277l277 349v80h-361v-71h254l-268 -334v-97zM188 617h92v102h-92v-102z" />
    <glyph glyph-name="Racute" unicode="&#xc0;" horiz-adv-x="667" 
d="M86 0h99v326h126q45 0 74 -6.5t46 -22t25 -41.5t13 -65q3 -21 6 -46.5t7 -51.5t9 -50.5t11 -42.5h107q-11 30 -17.5 57.5t-11.5 54.5t-8.5 55l-7.5 60q-4 34 -12 57.5t-21 39t-32 25.5t-45 17q17 5 39.5 14.5t45.5 32.5q24 24 37.5 57t13.5 71q0 44 -19.5 82.5
t-60.5 64.5q-20 13 -43 20t-46 10t-43 3.5t-34 0.5h-258v-722zM183 638h158q15 0 39.5 -2t47.5 -13t40 -34.5t17 -67.5q0 -23 -5.5 -39t-13.5 -27.5t-16.5 -18t-13.5 -9.5q-10 -6 -24.5 -9.5t-29 -5t-26.5 -1.5h-15h-158v227zM357 909l-82 -144h65l121 144h-104z" />
    <glyph glyph-name="Racute" unicode="&#x154;" horiz-adv-x="667" 
d="M86 0h99v326h126q45 0 74 -6.5t46 -22t25 -41.5t13 -65q3 -21 6 -46.5t7 -51.5t9 -50.5t11 -42.5h107q-11 30 -17.5 57.5t-11.5 54.5t-8.5 55l-7.5 60q-4 34 -12 57.5t-21 39t-32 25.5t-45 17q17 5 39.5 14.5t45.5 32.5q24 24 37.5 57t13.5 71q0 44 -19.5 82.5
t-60.5 64.5q-20 13 -43 20t-46 10t-43 3.5t-34 0.5h-258v-722zM183 638h158q15 0 39.5 -2t47.5 -13t40 -34.5t17 -67.5q0 -23 -5.5 -39t-13.5 -27.5t-16.5 -18t-13.5 -9.5q-10 -6 -24.5 -9.5t-29 -5t-26.5 -1.5h-15h-158v227zM357 909l-82 -144h65l121 144h-104z" />
    <glyph glyph-name="Abreve" unicode="&#xc3;" horiz-adv-x="722" 
d="M9 0h103l78 188h335l78 -188h109l-292 722h-107zM362 623l133 -354h-273zM227 920q0 -14 2 -40.5t15 -52.5t40.5 -45t77.5 -19q70 0 105.5 40t33.5 117h-47q0 -7 -2.5 -22.5t-12 -31.5t-27.5 -28t-50 -12q-45 0 -65.5 25.5t-22.5 68.5h-47z" />
    <glyph glyph-name="Abreve" unicode="&#x102;" horiz-adv-x="722" 
d="M9 0h103l78 188h335l78 -188h109l-292 722h-107zM362 623l133 -354h-273zM227 920q0 -14 2 -40.5t15 -52.5t40.5 -45t77.5 -19q70 0 105.5 40t33.5 117h-47q0 -7 -2.5 -22.5t-12 -31.5t-27.5 -28t-50 -12q-45 0 -65.5 25.5t-22.5 68.5h-47z" />
    <glyph glyph-name="Lacute" unicode="&#xc5;" 
d="M93 0h435v89h-336v633h-99v-722zM167 909l-82 -144h65l121 144h-104z" />
    <glyph glyph-name="Lacute" unicode="&#x139;" 
d="M93 0h435v89h-336v633h-99v-722zM167 909l-82 -144h65l121 144h-104z" />
    <glyph glyph-name="Cacute" unicode="&#xc6;" horiz-adv-x="667" 
d="M630 527q-5 61 -31.5 101t-64.5 63t-81.5 32t-81.5 9q-64 0 -112.5 -17.5t-83.5 -47t-58 -68t-37 -80.5t-19.5 -85t-5.5 -81q0 -53 11.5 -116t44.5 -118.5t92.5 -92.5t154.5 -37q46 0 92 11.5t83.5 36t63 62.5t31.5 91h-110q-2 -13 -8.5 -34t-26.5 -42
q-23 -24 -53.5 -33.5t-63.5 -9.5q-62 0 -101.5 25t-62.5 65.5t-31.5 91t-8.5 101.5q0 45 7.5 97t29.5 97t62.5 74.5t105.5 29.5q52 0 82.5 -16t46 -37t20.5 -42t7 -30h107zM384 909l-82 -143h65l122 143h-105z" />
    <glyph glyph-name="Cacute" unicode="&#x106;" horiz-adv-x="667" 
d="M630 527q-5 61 -31.5 101t-64.5 63t-81.5 32t-81.5 9q-64 0 -112.5 -17.5t-83.5 -47t-58 -68t-37 -80.5t-19.5 -85t-5.5 -81q0 -53 11.5 -116t44.5 -118.5t92.5 -92.5t154.5 -37q46 0 92 11.5t83.5 36t63 62.5t31.5 91h-110q-2 -13 -8.5 -34t-26.5 -42
q-23 -24 -53.5 -33.5t-63.5 -9.5q-62 0 -101.5 25t-62.5 65.5t-31.5 91t-8.5 101.5q0 45 7.5 97t29.5 97t62.5 74.5t105.5 29.5q52 0 82.5 -16t46 -37t20.5 -42t7 -30h107zM384 909l-82 -143h65l122 143h-105z" />
    <glyph glyph-name="Ccaron" unicode="&#xc8;" horiz-adv-x="667" 
d="M630 527q-5 61 -31.5 101t-64.5 63t-81.5 32t-81.5 9q-64 0 -112.5 -17.5t-83.5 -47t-58 -68t-37 -80.5t-19.5 -85t-5.5 -81q0 -53 11.5 -116t44.5 -118.5t92.5 -92.5t154.5 -37q46 0 92 11.5t83.5 36t63 62.5t31.5 91h-110q-2 -13 -8.5 -34t-26.5 -42
q-23 -24 -53.5 -33.5t-63.5 -9.5q-62 0 -101.5 25t-62.5 65.5t-31.5 91t-8.5 101.5q0 45 7.5 97t29.5 97t62.5 74.5t105.5 29.5q52 0 82.5 -16t46 -37t20.5 -42t7 -30h107zM313 765h92l104 142h-78l-70 -96l-67 96h-86z" />
    <glyph glyph-name="Ccaron" unicode="&#x10c;" horiz-adv-x="667" 
d="M630 527q-5 61 -31.5 101t-64.5 63t-81.5 32t-81.5 9q-64 0 -112.5 -17.5t-83.5 -47t-58 -68t-37 -80.5t-19.5 -85t-5.5 -81q0 -53 11.5 -116t44.5 -118.5t92.5 -92.5t154.5 -37q46 0 92 11.5t83.5 36t63 62.5t31.5 91h-110q-2 -13 -8.5 -34t-26.5 -42
q-23 -24 -53.5 -33.5t-63.5 -9.5q-62 0 -101.5 25t-62.5 65.5t-31.5 91t-8.5 101.5q0 45 7.5 97t29.5 97t62.5 74.5t105.5 29.5q52 0 82.5 -16t46 -37t20.5 -42t7 -30h107zM313 765h92l104 142h-78l-70 -96l-67 96h-86z" />
    <glyph glyph-name="Eogonek" unicode="&#xca;" horiz-adv-x="611" 
d="M76 0h420q-49 -22 -84 -52.5t-35 -71.5q0 -12 4.5 -25t15.5 -24t29 -18t45 -7q34 0 55 8t39 17v41q-8 -5 -18 -8.5t-27 -3.5q-3 0 -13.5 1t-21.5 5.5t-20 14.5t-9 29q0 16 7 29t18.5 24t26 21t29.5 20v88h-361v240h336v84h-336v225h353v85h-453v-722z" />
    <glyph glyph-name="Eogonek" unicode="&#x118;" horiz-adv-x="611" 
d="M76 0h420q-49 -22 -84 -52.5t-35 -71.5q0 -12 4.5 -25t15.5 -24t29 -18t45 -7q34 0 55 8t39 17v41q-8 -5 -18 -8.5t-27 -3.5q-3 0 -13.5 1t-21.5 5.5t-20 14.5t-9 29q0 16 7 29t18.5 24t26 21t29.5 20v88h-361v240h336v84h-336v225h353v85h-453v-722z" />
    <glyph glyph-name="Ecaron" unicode="&#xcc;" horiz-adv-x="611" 
d="M76 0h461v88h-361v240h336v84h-336v225h353v85h-453v-722zM264 765h93l104 143h-79l-69 -96l-67 96h-86z" />
    <glyph glyph-name="Ecaron" unicode="&#x11a;" horiz-adv-x="611" 
d="M76 0h461v88h-361v240h336v84h-336v225h353v85h-453v-722zM264 765h93l104 143h-79l-69 -96l-67 96h-86z" />
    <glyph glyph-name="Dcaron" unicode="&#xcf;" horiz-adv-x="722" 
d="M88 0h203q40 0 76.5 1t69.5 6.5t63 17.5t57 34q21 16 42 42.5t38.5 63.5t28.5 84t11 106q0 75 -20.5 145.5t-68.5 127.5q-30 35 -65.5 54t-73.5 28t-77 10.5t-75 1.5h-209v-722zM188 639h120q66 0 111.5 -12.5t80.5 -50.5q25 -28 39.5 -63t21 -67.5t8 -58.5t1.5 -36
q0 -16 -2 -44t-11 -60.5t-28.5 -65.5t-53.5 -59q-36 -27 -86.5 -33.5t-102.5 -6.5h-98v557zM294 765h93l104 143h-79l-69 -96l-67 96h-86z" />
    <glyph glyph-name="Dcaron" unicode="&#x10e;" horiz-adv-x="722" 
d="M88 0h203q40 0 76.5 1t69.5 6.5t63 17.5t57 34q21 16 42 42.5t38.5 63.5t28.5 84t11 106q0 75 -20.5 145.5t-68.5 127.5q-30 35 -65.5 54t-73.5 28t-77 10.5t-75 1.5h-209v-722zM188 639h120q66 0 111.5 -12.5t80.5 -50.5q25 -28 39.5 -63t21 -67.5t8 -58.5t1.5 -36
q0 -16 -2 -44t-11 -60.5t-28.5 -65.5t-53.5 -59q-36 -27 -86.5 -33.5t-102.5 -6.5h-98v557zM294 765h93l104 143h-79l-69 -96l-67 96h-86z" />
    <glyph glyph-name="Dcroat" unicode="&#xd0;" horiz-adv-x="722" 
d="M88 0h203q40 0 76.5 1t69.5 6.5t63 17.5t57 34q21 16 42 42.5t38.5 63.5t28.5 84t11 106q0 75 -20.5 145.5t-68.5 127.5q-30 35 -65.5 54t-73.5 28t-77 10.5t-75 1.5h-209v-292h-70v-61h70v-369zM188 369h192v61h-192v209h120q66 0 111.5 -12.5t80.5 -50.5
q25 -28 39.5 -63t21 -67.5t8 -58.5t1.5 -36q0 -16 -2 -44t-11 -60.5t-28.5 -65.5t-53.5 -59q-36 -27 -86.5 -33.5t-102.5 -6.5h-98v287z" />
    <glyph glyph-name="Dcroat" unicode="&#x110;" horiz-adv-x="722" 
d="M88 0h203q40 0 76.5 1t69.5 6.5t63 17.5t57 34q21 16 42 42.5t38.5 63.5t28.5 84t11 106q0 75 -20.5 145.5t-68.5 127.5q-30 35 -65.5 54t-73.5 28t-77 10.5t-75 1.5h-209v-292h-70v-61h70v-369zM188 369h192v61h-192v209h120q66 0 111.5 -12.5t80.5 -50.5
q25 -28 39.5 -63t21 -67.5t8 -58.5t1.5 -36q0 -16 -2 -44t-11 -60.5t-28.5 -65.5t-53.5 -59q-36 -27 -86.5 -33.5t-102.5 -6.5h-98v287z" />
    <glyph glyph-name="Nacute" unicode="&#xd1;" horiz-adv-x="778" 
d="M95 0h91v613l367 -613h128v722h-92v-597l-355 597h-139v-722zM412 909l-82 -144h65l121 144h-104z" />
    <glyph glyph-name="Nacute" unicode="&#x143;" horiz-adv-x="778" 
d="M95 0h91v613l367 -613h128v722h-92v-597l-355 597h-139v-722zM412 909l-82 -144h65l121 144h-104z" />
    <glyph glyph-name="Ncaron" unicode="&#xd2;" horiz-adv-x="778" 
d="M95 0h91v613l367 -613h128v722h-92v-597l-355 597h-139v-722zM340 765h93l104 143h-79l-69 -96l-67 96h-86z" />
    <glyph glyph-name="Ncaron" unicode="&#x147;" horiz-adv-x="778" 
d="M95 0h91v613l367 -613h128v722h-92v-597l-355 597h-139v-722zM340 765h93l104 143h-79l-69 -96l-67 96h-86z" />
    <glyph glyph-name="Ohungarumlaut" unicode="&#xd5;" horiz-adv-x="778" 
d="M59 356q0 -74 16.5 -141.5t54.5 -119t100.5 -82t154.5 -30.5q96 0 160.5 33t103 87.5t54.5 123.5t16 141q0 92 -23 161.5t-65 116.5t-102.5 71t-135.5 24q-25 0 -55.5 -4t-62 -14.5t-63.5 -29.5t-60 -49q-30 -32 -48 -69.5t-28 -75.5t-13.5 -75t-3.5 -68zM164 362
q0 55 10 108.5t36 94.5t70.5 66.5t113.5 25.5q62 0 104 -22t67.5 -60.5t36.5 -91.5t11 -114q0 -18 -2 -47t-8.5 -62t-19.5 -66t-35 -60q-32 -38 -73.5 -52t-86.5 -14q-43 0 -86 14t-74 52q-38 47 -51 107.5t-13 120.5zM442 909h-104l-82 -144h65zM601 909h-104l-82 -144h65z
" />
    <glyph glyph-name="Ohungarumlaut" unicode="&#x150;" horiz-adv-x="778" 
d="M59 356q0 -74 16.5 -141.5t54.5 -119t100.5 -82t154.5 -30.5q96 0 160.5 33t103 87.5t54.5 123.5t16 141q0 92 -23 161.5t-65 116.5t-102.5 71t-135.5 24q-25 0 -55.5 -4t-62 -14.5t-63.5 -29.5t-60 -49q-30 -32 -48 -69.5t-28 -75.5t-13.5 -75t-3.5 -68zM164 362
q0 55 10 108.5t36 94.5t70.5 66.5t113.5 25.5q62 0 104 -22t67.5 -60.5t36.5 -91.5t11 -114q0 -18 -2 -47t-8.5 -62t-19.5 -66t-35 -60q-32 -38 -73.5 -52t-86.5 -14q-43 0 -86 14t-74 52q-38 47 -51 107.5t-13 120.5zM442 909h-104l-82 -144h65zM601 909h-104l-82 -144h65z
" />
    <glyph glyph-name="multiply" unicode="&#xd7;" horiz-adv-x="584" 
d="M47 65l57 -57l186 186l186 -186l57 57l-185 186l186 186l-58 57l-186 -185l-186 185l-57 -57l186 -186z" />
    <glyph glyph-name="Rcaron" unicode="&#xd8;" horiz-adv-x="667" 
d="M86 0h99v326h126q45 0 74 -6.5t46 -22t25 -41.5t13 -65q3 -21 6 -46.5t7 -51.5t9 -50.5t11 -42.5h107q-11 30 -17.5 57.5t-11.5 54.5t-8.5 55l-7.5 60q-4 34 -12 57.5t-21 39t-32 25.5t-45 17q17 5 39.5 14.5t45.5 32.5q24 24 37.5 57t13.5 71q0 44 -19.5 82.5
t-60.5 64.5q-20 13 -43 20t-46 10t-43 3.5t-34 0.5h-258v-722zM183 638h158q15 0 39.5 -2t47.5 -13t40 -34.5t17 -67.5q0 -23 -5.5 -39t-13.5 -27.5t-16.5 -18t-13.5 -9.5q-10 -6 -24.5 -9.5t-29 -5t-26.5 -1.5h-15h-158v227zM285 765h93l104 143h-79l-69 -96l-67 96h-86z
" />
    <glyph glyph-name="Rcaron" unicode="&#x158;" horiz-adv-x="667" 
d="M86 0h99v326h126q45 0 74 -6.5t46 -22t25 -41.5t13 -65q3 -21 6 -46.5t7 -51.5t9 -50.5t11 -42.5h107q-11 30 -17.5 57.5t-11.5 54.5t-8.5 55l-7.5 60q-4 34 -12 57.5t-21 39t-32 25.5t-45 17q17 5 39.5 14.5t45.5 32.5q24 24 37.5 57t13.5 71q0 44 -19.5 82.5
t-60.5 64.5q-20 13 -43 20t-46 10t-43 3.5t-34 0.5h-258v-722zM183 638h158q15 0 39.5 -2t47.5 -13t40 -34.5t17 -67.5q0 -23 -5.5 -39t-13.5 -27.5t-16.5 -18t-13.5 -9.5q-10 -6 -24.5 -9.5t-29 -5t-26.5 -1.5h-15h-158v227zM285 765h93l104 143h-79l-69 -96l-67 96h-86z
" />
    <glyph glyph-name="Uring" unicode="&#xd9;" horiz-adv-x="778" 
d="M93 722v-440q0 -41 3.5 -70t9.5 -50t13.5 -35.5t15.5 -26.5q25 -36 58.5 -58.5t68.5 -35t68.5 -17t59.5 -4.5q19 0 48 3t61.5 13.5t64.5 30.5t59 53q22 27 34 55t17.5 53.5t6.5 47t1 36.5v445h-97v-443q0 -20 -3 -54t-21.5 -68t-58 -58.5t-112.5 -24.5q-19 0 -40.5 2.5
t-43.5 10.5t-43 21.5t-38 36.5q-6 8 -11.5 18.5t-10 25.5t-7.5 36t-3 50v447h-100zM291 838q0 -41 28.5 -69.5t69.5 -28.5t69.5 28.5t28.5 69.5t-28.5 69.5t-69.5 28.5t-69.5 -28.5t-28.5 -69.5zM331 838q0 24 17 41t41 17t41 -17t17 -41t-17 -41t-41 -17t-41 17t-17 41z
" />
    <glyph glyph-name="Uring" unicode="&#x16e;" horiz-adv-x="778" 
d="M93 722v-440q0 -41 3.5 -70t9.5 -50t13.5 -35.5t15.5 -26.5q25 -36 58.5 -58.5t68.5 -35t68.5 -17t59.5 -4.5q19 0 48 3t61.5 13.5t64.5 30.5t59 53q22 27 34 55t17.5 53.5t6.5 47t1 36.5v445h-97v-443q0 -20 -3 -54t-21.5 -68t-58 -58.5t-112.5 -24.5q-19 0 -40.5 2.5
t-43.5 10.5t-43 21.5t-38 36.5q-6 8 -11.5 18.5t-10 25.5t-7.5 36t-3 50v447h-100zM291 838q0 -41 28.5 -69.5t69.5 -28.5t69.5 28.5t28.5 69.5t-28.5 69.5t-69.5 28.5t-69.5 -28.5t-28.5 -69.5zM331 838q0 24 17 41t41 17t41 -17t17 -41t-17 -41t-41 -17t-41 17t-17 41z
" />
    <glyph glyph-name="Uhungarumlaut" unicode="&#xdb;" horiz-adv-x="778" 
d="M93 722v-440q0 -41 3.5 -70t9.5 -50t13.5 -35.5t15.5 -26.5q25 -36 58.5 -58.5t68.5 -35t68.5 -17t59.5 -4.5q19 0 48 3t61.5 13.5t64.5 30.5t59 53q22 27 34 55t17.5 53.5t6.5 47t1 36.5v445h-97v-443q0 -20 -3 -54t-21.5 -68t-58 -58.5t-112.5 -24.5q-19 0 -40.5 2.5
t-43.5 10.5t-43 21.5t-38 36.5q-6 8 -11.5 18.5t-10 25.5t-7.5 36t-3 50v447h-100zM442 909h-104l-82 -144h65zM601 909h-104l-82 -144h65z" />
    <glyph glyph-name="Uhungarumlaut" unicode="&#x170;" horiz-adv-x="778" 
d="M93 722v-440q0 -41 3.5 -70t9.5 -50t13.5 -35.5t15.5 -26.5q25 -36 58.5 -58.5t68.5 -35t68.5 -17t59.5 -4.5q19 0 48 3t61.5 13.5t64.5 30.5t59 53q22 27 34 55t17.5 53.5t6.5 47t1 36.5v445h-97v-443q0 -20 -3 -54t-21.5 -68t-58 -58.5t-112.5 -24.5q-19 0 -40.5 2.5
t-43.5 10.5t-43 21.5t-38 36.5q-6 8 -11.5 18.5t-10 25.5t-7.5 36t-3 50v447h-100zM442 909h-104l-82 -144h65zM601 909h-104l-82 -144h65z" />
    <glyph glyph-name="Yacute" unicode="&#xdd;" horiz-adv-x="667" 
d="M289 0h101v279l282 443h-112l-216 -354l-213 354h-124l282 -438v-284zM356 909l-82 -144h65l121 144h-104z" />
    <glyph glyph-name="Tcommaaccent" unicode="&#xde;" horiz-adv-x="611" 
d="M362 0v637h242v85h-583v-85h242v-637h99zM265 -51v-97h51q0 -14 -1.5 -30t-7 -30t-15.5 -24.5t-27 -14.5v-40q30 3 48.5 16.5t29 34t14 45t3.5 50.5v90h-95z" />
    <glyph glyph-name="Tcommaaccent" unicode="&#x162;" horiz-adv-x="611" 
d="M362 0v637h242v85h-583v-85h242v-637h99zM265 -51v-97h51q0 -14 -1.5 -30t-7 -30t-15.5 -24.5t-27 -14.5v-40q30 3 48.5 16.5t29 34t14 45t3.5 50.5v90h-95z" />
    <glyph glyph-name="racute" unicode="&#xe0;" horiz-adv-x="389" 
d="M93 0h95v267q0 32 6 60t21 48.5t41.5 32t68.5 11.5h15t12 -1q12 -2 18 -4v92q-12 1 -28 1t-37 -3q-16 -2 -34 -8t-35 -17.5t-30.5 -29.5t-20.5 -44l-2 97h-95q2 -25 3.5 -50.5t1.5 -51.5v-400zM242 740l-82 -144h65l121 144h-104z" />
    <glyph glyph-name="racute" unicode="&#x155;" horiz-adv-x="389" 
d="M93 0h95v267q0 32 6 60t21 48.5t41.5 32t68.5 11.5h15t12 -1q12 -2 18 -4v92q-12 1 -28 1t-37 -3q-16 -2 -34 -8t-35 -17.5t-30.5 -29.5t-20.5 -44l-2 97h-95q2 -25 3.5 -50.5t1.5 -51.5v-400zM242 740l-82 -144h65l121 144h-104z" />
    <glyph glyph-name="abreve" unicode="&#xe3;" 
d="M479 0q-3 19 -4.5 40t-2 39t-1 31t-0.5 16l4 240q0 17 -2.5 35.5t-14.5 41.5q-10 19 -29 33t-43 23t-51.5 13.5t-54.5 4.5q-20 0 -42.5 -2.5t-44 -8.5t-41.5 -16.5t-34 -26.5q-22 -26 -27.5 -50.5t-7.5 -44.5h94q0 7 2.5 21.5t12.5 28.5t30 24.5t56 10.5q20 0 46.5 -7
t40.5 -26q7 -8 10.5 -18t5 -22.5t2 -30t0.5 -40.5q-22 2 -36 2.5t-32 0.5q-15 0 -36.5 -1t-45.5 -4.5t-48 -10t-44 -17.5q-28 -16 -45 -35.5t-26.5 -39t-13 -38.5t-3.5 -34q0 -31 11.5 -58t34 -47t55.5 -31.5t76 -11.5q16 0 35.5 2.5t40.5 12t41.5 27.5t37.5 49q0 -20 2 -38
t7 -37h85zM383 244q-1 -26 -2 -45.5t-3 -34.5t-6.5 -27t-12.5 -25q-35 -54 -107 -54q-32 0 -52 9t-31.5 22.5t-16 28.5t-4.5 27q0 38 23 59t53.5 30.5t60.5 11t44 1.5q17 0 29 -0.5t25 -2.5zM153 751q0 -14 2 -40.5t15 -52.5t40.5 -45t77.5 -19q70 0 105.5 40t33.5 117h-47
q0 -7 -2.5 -22.5t-12 -31.5t-27.5 -28t-50 -12q-45 0 -65.5 25.5t-22.5 68.5h-47z" />
    <glyph glyph-name="abreve" unicode="&#x103;" 
d="M479 0q-3 19 -4.5 40t-2 39t-1 31t-0.5 16l4 240q0 17 -2.5 35.5t-14.5 41.5q-10 19 -29 33t-43 23t-51.5 13.5t-54.5 4.5q-20 0 -42.5 -2.5t-44 -8.5t-41.5 -16.5t-34 -26.5q-22 -26 -27.5 -50.5t-7.5 -44.5h94q0 7 2.5 21.5t12.5 28.5t30 24.5t56 10.5q20 0 46.5 -7
t40.5 -26q7 -8 10.5 -18t5 -22.5t2 -30t0.5 -40.5q-22 2 -36 2.5t-32 0.5q-15 0 -36.5 -1t-45.5 -4.5t-48 -10t-44 -17.5q-28 -16 -45 -35.5t-26.5 -39t-13 -38.5t-3.5 -34q0 -31 11.5 -58t34 -47t55.5 -31.5t76 -11.5q16 0 35.5 2.5t40.5 12t41.5 27.5t37.5 49q0 -20 2 -38
t7 -37h85zM383 244q-1 -26 -2 -45.5t-3 -34.5t-6.5 -27t-12.5 -25q-35 -54 -107 -54q-32 0 -52 9t-31.5 22.5t-16 28.5t-4.5 27q0 38 23 59t53.5 30.5t60.5 11t44 1.5q17 0 29 -0.5t25 -2.5zM153 751q0 -14 2 -40.5t15 -52.5t40.5 -45t77.5 -19q70 0 105.5 40t33.5 117h-47
q0 -7 -2.5 -22.5t-12 -31.5t-27.5 -28t-50 -12q-45 0 -65.5 25.5t-22.5 68.5h-47z" />
    <glyph glyph-name="lacute" unicode="&#xe5;" horiz-adv-x="278" 
d="M90 0h94v721h-94v-721zM159 909l-82 -144h65l121 144h-104z" />
    <glyph glyph-name="lacute" unicode="&#x13a;" horiz-adv-x="278" 
d="M90 0h94v721h-94v-721zM159 909l-82 -144h65l121 144h-104z" />
    <glyph glyph-name="cacute" unicode="&#xe6;" horiz-adv-x="500" 
d="M469 341q-2 21 -8 50.5t-34 61.5q-17 21 -38.5 33t-43 18.5t-41 8.5t-31.5 2q-38 0 -78 -13t-73.5 -44t-55 -83.5t-21.5 -130.5q0 -39 5 -69t13.5 -53t19.5 -40t22 -30q20 -22 43.5 -35t46 -19.5t42.5 -8.5t33 -2q46 0 83 14.5t63 39t40.5 57t16.5 69.5h-95
q-1 -18 -7 -37.5t-18.5 -35.5t-33 -26t-50.5 -10q-38 0 -62 16.5t-38 44.5t-19.5 63.5t-5.5 74.5q0 14 2 45.5t14 63.5t38.5 56t75.5 24q34 0 53.5 -13t29.5 -30.5t13 -35t4 -26.5h95zM301 740l-82 -144h65l121 144h-104z" />
    <glyph glyph-name="cacute" unicode="&#x107;" horiz-adv-x="500" 
d="M469 341q-2 21 -8 50.5t-34 61.5q-17 21 -38.5 33t-43 18.5t-41 8.5t-31.5 2q-38 0 -78 -13t-73.5 -44t-55 -83.5t-21.5 -130.5q0 -39 5 -69t13.5 -53t19.5 -40t22 -30q20 -22 43.5 -35t46 -19.5t42.5 -8.5t33 -2q46 0 83 14.5t63 39t40.5 57t16.5 69.5h-95
q-1 -18 -7 -37.5t-18.5 -35.5t-33 -26t-50.5 -10q-38 0 -62 16.5t-38 44.5t-19.5 63.5t-5.5 74.5q0 14 2 45.5t14 63.5t38.5 56t75.5 24q34 0 53.5 -13t29.5 -30.5t13 -35t4 -26.5h95zM301 740l-82 -144h65l121 144h-104z" />
    <glyph glyph-name="ccaron" unicode="&#xe8;" horiz-adv-x="500" 
d="M469 341q-2 21 -8 50.5t-34 61.5q-17 21 -38.5 33t-43 18.5t-41 8.5t-31.5 2q-38 0 -78 -13t-73.5 -44t-55 -83.5t-21.5 -130.5q0 -39 5 -69t13.5 -53t19.5 -40t22 -30q20 -22 43.5 -35t46 -19.5t42.5 -8.5t33 -2q46 0 83 14.5t63 39t40.5 57t16.5 69.5h-95
q-1 -18 -7 -37.5t-18.5 -35.5t-33 -26t-50.5 -10q-38 0 -62 16.5t-38 44.5t-19.5 63.5t-5.5 74.5q0 14 2 45.5t14 63.5t38.5 56t75.5 24q34 0 53.5 -13t29.5 -30.5t13 -35t4 -26.5h95zM230 596h93l104 143h-79l-69 -96l-67 96h-86z" />
    <glyph glyph-name="ccaron" unicode="&#x10d;" horiz-adv-x="500" 
d="M469 341q-2 21 -8 50.5t-34 61.5q-17 21 -38.5 33t-43 18.5t-41 8.5t-31.5 2q-38 0 -78 -13t-73.5 -44t-55 -83.5t-21.5 -130.5q0 -39 5 -69t13.5 -53t19.5 -40t22 -30q20 -22 43.5 -35t46 -19.5t42.5 -8.5t33 -2q46 0 83 14.5t63 39t40.5 57t16.5 69.5h-95
q-1 -18 -7 -37.5t-18.5 -35.5t-33 -26t-50.5 -10q-38 0 -62 16.5t-38 44.5t-19.5 63.5t-5.5 74.5q0 14 2 45.5t14 63.5t38.5 56t75.5 24q34 0 53.5 -13t29.5 -30.5t13 -35t4 -26.5h95zM230 596h93l104 143h-79l-69 -96l-67 96h-86z" />
    <glyph glyph-name="eogonek" unicode="&#xea;" 
d="M149 300q1 42 14 70t32.5 45.5t43.5 25t47 7.5q43 0 68 -16.5t37.5 -39.5t15.5 -48.5t3 -43.5h-261zM407 157q-6 -54 -39 -79t-79 -25q-39 0 -66.5 13.5t-45 38t-25.5 57.5t-7 72h361v49t-5.5 60.5t-18.5 62t-37 55t-62.5 39.5t-94.5 15q-11 0 -27 -1t-34.5 -5t-38 -11
t-37.5 -20q-59 -41 -79 -101.5t-20 -134.5q0 -119 57 -188t176 -69h11t10 1q5 0 10 0.5t10 1.5q-41 -21 -68 -48.5t-27 -63.5q0 -12 4.5 -25t15.5 -24t29 -18t45 -7q34 0 55 8t39 17v41q-8 -5 -18 -8.5t-27 -3.5q-3 0 -13.5 1t-21.5 5.5t-20 14.5t-9 29q0 16 7 28.5t17.5 23
t22.5 19t23 14.5q21 13 42 28t37.5 34.5t28 45t13.5 58.5h-94z" />
    <glyph glyph-name="eogonek" unicode="&#x119;" 
d="M149 300q1 42 14 70t32.5 45.5t43.5 25t47 7.5q43 0 68 -16.5t37.5 -39.5t15.5 -48.5t3 -43.5h-261zM407 157q-6 -54 -39 -79t-79 -25q-39 0 -66.5 13.5t-45 38t-25.5 57.5t-7 72h361v49t-5.5 60.5t-18.5 62t-37 55t-62.5 39.5t-94.5 15q-11 0 -27 -1t-34.5 -5t-38 -11
t-37.5 -20q-59 -41 -79 -101.5t-20 -134.5q0 -119 57 -188t176 -69h11t10 1q5 0 10 0.5t10 1.5q-41 -21 -68 -48.5t-27 -63.5q0 -12 4.5 -25t15.5 -24t29 -18t45 -7q34 0 55 8t39 17v41q-8 -5 -18 -8.5t-27 -3.5q-3 0 -13.5 1t-21.5 5.5t-20 14.5t-9 29q0 16 7 28.5t17.5 23
t22.5 19t23 14.5q21 13 42 28t37.5 34.5t28 45t13.5 58.5h-94z" />
    <glyph glyph-name="ecaron" unicode="&#xec;" 
d="M506 234v49t-5.5 60.5t-18.5 62t-37 55t-62.5 39.5t-94.5 15q-11 0 -27 -1t-34.5 -5t-38 -11t-37.5 -20q-59 -41 -79 -101.5t-20 -134.5q0 -119 57 -188t176 -69q38 0 66.5 7t49.5 17t35 22t22 21q27 29 34 57.5t9 47.5h-94q-6 -54 -39 -79t-79 -25q-39 0 -66.5 13.5
t-45 38t-25.5 57.5t-7 72h361zM149 300q1 42 14 70t32.5 45.5t43.5 25t47 7.5q43 0 68 -16.5t37.5 -39.5t15.5 -48.5t3 -43.5h-261zM239 596h93l104 143h-79l-69 -96l-67 96h-86z" />
    <glyph glyph-name="ecaron" unicode="&#x11b;" 
d="M506 234v49t-5.5 60.5t-18.5 62t-37 55t-62.5 39.5t-94.5 15q-11 0 -27 -1t-34.5 -5t-38 -11t-37.5 -20q-59 -41 -79 -101.5t-20 -134.5q0 -119 57 -188t176 -69q38 0 66.5 7t49.5 17t35 22t22 21q27 29 34 57.5t9 47.5h-94q-6 -54 -39 -79t-79 -25q-39 0 -66.5 13.5
t-45 38t-25.5 57.5t-7 72h361zM149 300q1 42 14 70t32.5 45.5t43.5 25t47 7.5q43 0 68 -16.5t37.5 -39.5t15.5 -48.5t3 -43.5h-261zM239 596h93l104 143h-79l-69 -96l-67 96h-86z" />
    <glyph glyph-name="dcaron" unicode="&#xef;" horiz-adv-x="670" 
d="M530 721h-94v-287q-5 8 -14.5 22t-27.5 28t-46 24.5t-68 10.5q-44 0 -85 -16t-72.5 -49.5t-50.5 -85t-19 -123.5q0 -83 24.5 -133t58.5 -77t71 -36t62 -9q26 0 59.5 8t64.5 29q20 14 29.5 28t15.5 25l2 -80h94q-1 10 -1.5 22t-1 23.5t-1 21t-0.5 13.5v641zM439 258
q0 -15 -2.5 -48t-16 -67.5t-44 -60.5t-85.5 -26q-43 0 -70 17.5t-42 45t-20.5 62t-5.5 67.5q0 8 0.5 26.5t4.5 41t12.5 46t23.5 43t38.5 32t58.5 12.5q40 0 67.5 -15.5t42.5 -35.5q16 -20 27 -52.5t11 -87.5zM580 721v-97h51q0 -14 -1.5 -30t-7 -30t-15.5 -24.5t-27 -14.5
v-40q30 3 48.5 16.5t29 34t14 45t3.5 50.5v90h-95z" />
    <glyph glyph-name="dcaron" unicode="&#x10f;" horiz-adv-x="670" 
d="M530 721h-94v-287q-5 8 -14.5 22t-27.5 28t-46 24.5t-68 10.5q-44 0 -85 -16t-72.5 -49.5t-50.5 -85t-19 -123.5q0 -83 24.5 -133t58.5 -77t71 -36t62 -9q26 0 59.5 8t64.5 29q20 14 29.5 28t15.5 25l2 -80h94q-1 10 -1.5 22t-1 23.5t-1 21t-0.5 13.5v641zM439 258
q0 -15 -2.5 -48t-16 -67.5t-44 -60.5t-85.5 -26q-43 0 -70 17.5t-42 45t-20.5 62t-5.5 67.5q0 8 0.5 26.5t4.5 41t12.5 46t23.5 43t38.5 32t58.5 12.5q40 0 67.5 -15.5t42.5 -35.5q16 -20 27 -52.5t11 -87.5zM580 721v-97h51q0 -14 -1.5 -30t-7 -30t-15.5 -24.5t-27 -14.5
v-40q30 3 48.5 16.5t29 34t14 45t3.5 50.5v90h-95z" />
    <glyph glyph-name="dcroat" unicode="&#xf0;" horiz-adv-x="611" 
d="M436 647h-166v-61h166v-152q-5 8 -14.5 22t-27.5 28t-46 24.5t-68 10.5q-44 0 -85 -16t-72.5 -49.5t-50.5 -85t-19 -123.5q0 -83 24.5 -133t58.5 -77t71 -36t62 -9q26 0 59.5 8t64.5 29q20 14 29.5 28t15.5 25l2 -80h94q-1 10 -1.5 22t-1 23.5t-1 21t-0.5 13.5v506h64v61
h-64v74h-94v-74zM439 258q0 -15 -2.5 -48t-16 -67.5t-44 -60.5t-85.5 -26q-43 0 -70 17.5t-42 45t-20.5 62t-5.5 67.5q0 8 0.5 26.5t4.5 41t12.5 46t23.5 43t38.5 32t58.5 12.5q40 0 67.5 -15.5t42.5 -35.5q16 -20 27 -52.5t11 -87.5z" />
    <glyph glyph-name="dcroat" unicode="&#x111;" horiz-adv-x="611" 
d="M436 647h-166v-61h166v-152q-5 8 -14.5 22t-27.5 28t-46 24.5t-68 10.5q-44 0 -85 -16t-72.5 -49.5t-50.5 -85t-19 -123.5q0 -83 24.5 -133t58.5 -77t71 -36t62 -9q26 0 59.5 8t64.5 29q20 14 29.5 28t15.5 25l2 -80h94q-1 10 -1.5 22t-1 23.5t-1 21t-0.5 13.5v506h64v61
h-64v74h-94v-74zM439 258q0 -15 -2.5 -48t-16 -67.5t-44 -60.5t-85.5 -26q-43 0 -70 17.5t-42 45t-20.5 62t-5.5 67.5q0 8 0.5 26.5t4.5 41t12.5 46t23.5 43t38.5 32t58.5 12.5q40 0 67.5 -15.5t42.5 -35.5q16 -20 27 -52.5t11 -87.5z" />
    <glyph glyph-name="nacute" unicode="&#xf1;" horiz-adv-x="611" 
d="M91 0h94v289q0 38 11 66t29 47t41.5 28t49.5 9q24 0 47.5 -8.5t41.5 -25.5q17 -17 22 -39t5 -47v-319h96v341q0 58 -22 92t-52 51.5t-60.5 22.5t-47.5 5q-43 0 -72 -11.5t-47.5 -26.5t-28 -30t-13.5 -23l-1 81h-94l1 -58v-444zM341 740l-82 -144h65l121 144h-104z" />
    <glyph glyph-name="nacute" unicode="&#x144;" horiz-adv-x="611" 
d="M91 0h94v289q0 38 11 66t29 47t41.5 28t49.5 9q24 0 47.5 -8.5t41.5 -25.5q17 -17 22 -39t5 -47v-319h96v341q0 58 -22 92t-52 51.5t-60.5 22.5t-47.5 5q-43 0 -72 -11.5t-47.5 -26.5t-28 -30t-13.5 -23l-1 81h-94l1 -58v-444zM341 740l-82 -144h65l121 144h-104z" />
    <glyph glyph-name="ncaron" unicode="&#xf2;" horiz-adv-x="611" 
d="M91 0h94v289q0 38 11 66t29 47t41.5 28t49.5 9q24 0 47.5 -8.5t41.5 -25.5q17 -17 22 -39t5 -47v-319h96v341q0 58 -22 92t-52 51.5t-60.5 22.5t-47.5 5q-43 0 -72 -11.5t-47.5 -26.5t-28 -30t-13.5 -23l-1 81h-94l1 -58v-444zM281 596h93l104 143h-79l-69 -96l-67 96
h-86z" />
    <glyph glyph-name="ncaron" unicode="&#x148;" horiz-adv-x="611" 
d="M91 0h94v289q0 38 11 66t29 47t41.5 28t49.5 9q24 0 47.5 -8.5t41.5 -25.5q17 -17 22 -39t5 -47v-319h96v341q0 58 -22 92t-52 51.5t-60.5 22.5t-47.5 5q-43 0 -72 -11.5t-47.5 -26.5t-28 -30t-13.5 -23l-1 81h-94l1 -58v-444zM281 596h93l104 143h-79l-69 -96l-67 96
h-86z" />
    <glyph glyph-name="ohungarumlaut" unicode="&#xf5;" horiz-adv-x="611" 
d="M51 245q0 -55 15 -103t46 -83t77.5 -55.5t108.5 -20.5q64 0 112 21.5t79.5 58t47 85.5t15.5 104q0 39 -10 85t-37.5 85.5t-75.5 66t-123 26.5q-74 0 -123 -25t-78.5 -64t-41.5 -87t-12 -94zM149 251q0 59 16 97t40 59.5t51 30t50 8.5q66 0 106 -48.5t40 -142.5
q0 -57 -14 -95.5t-35.5 -62t-48.5 -34t-54 -10.5q-40 0 -68.5 16.5t-47 44t-27 63t-8.5 74.5zM359 740h-104l-82 -144h65zM518 740h-104l-82 -144h65z" />
    <glyph glyph-name="ohungarumlaut" unicode="&#x151;" horiz-adv-x="611" 
d="M51 245q0 -55 15 -103t46 -83t77.5 -55.5t108.5 -20.5q64 0 112 21.5t79.5 58t47 85.5t15.5 104q0 39 -10 85t-37.5 85.5t-75.5 66t-123 26.5q-74 0 -123 -25t-78.5 -64t-41.5 -87t-12 -94zM149 251q0 59 16 97t40 59.5t51 30t50 8.5q66 0 106 -48.5t40 -142.5
q0 -57 -14 -95.5t-35.5 -62t-48.5 -34t-54 -10.5q-40 0 -68.5 16.5t-47 44t-27 63t-8.5 74.5zM359 740h-104l-82 -144h65zM518 740h-104l-82 -144h65z" />
    <glyph glyph-name="rcaron" unicode="&#xf8;" horiz-adv-x="389" 
d="M93 0h95v267q0 32 6 60t21 48.5t41.5 32t68.5 11.5h15t12 -1q12 -2 18 -4v92q-12 1 -28 1t-37 -3q-16 -2 -34 -8t-35 -17.5t-30.5 -29.5t-20.5 -44l-2 97h-95q2 -25 3.5 -50.5t1.5 -51.5v-400zM170 596h93l104 143h-79l-69 -96l-67 96h-86z" />
    <glyph glyph-name="rcaron" unicode="&#x159;" horiz-adv-x="389" 
d="M93 0h95v267q0 32 6 60t21 48.5t41.5 32t68.5 11.5h15t12 -1q12 -2 18 -4v92q-12 1 -28 1t-37 -3q-16 -2 -34 -8t-35 -17.5t-30.5 -29.5t-20.5 -44l-2 97h-95q2 -25 3.5 -50.5t1.5 -51.5v-400zM170 596h93l104 143h-79l-69 -96l-67 96h-86z" />
    <glyph glyph-name="uring" unicode="&#xf9;" horiz-adv-x="611" 
d="M78 502v-337q0 -37 11 -68.5t33.5 -54t56.5 -35t81 -12.5q40 0 68 9.5t46 23t28.5 29.5t17.5 29l2 -86h98q0 10 -0.5 25t-1 29t-1 25t-0.5 15v408h-97v-284q0 -19 -2.5 -45t-18.5 -49q-20 -30 -51.5 -43t-66.5 -13q-36 0 -57 10.5t-32.5 26.5t-14.5 36t-3 38v323h-96z
M208 669q0 -41 28.5 -69.5t69.5 -28.5t69.5 28.5t28.5 69.5t-28.5 69.5t-69.5 28.5t-69.5 -28.5t-28.5 -69.5zM248 669q0 24 17 41t41 17t41 -17t17 -41t-17 -41t-41 -17t-41 17t-17 41z" />
    <glyph glyph-name="uring" unicode="&#x16f;" horiz-adv-x="611" 
d="M78 502v-337q0 -37 11 -68.5t33.5 -54t56.5 -35t81 -12.5q40 0 68 9.5t46 23t28.5 29.5t17.5 29l2 -86h98q0 10 -0.5 25t-1 29t-1 25t-0.5 15v408h-97v-284q0 -19 -2.5 -45t-18.5 -49q-20 -30 -51.5 -43t-66.5 -13q-36 0 -57 10.5t-32.5 26.5t-14.5 36t-3 38v323h-96z
M208 669q0 -41 28.5 -69.5t69.5 -28.5t69.5 28.5t28.5 69.5t-28.5 69.5t-69.5 28.5t-69.5 -28.5t-28.5 -69.5zM248 669q0 24 17 41t41 17t41 -17t17 -41t-17 -41t-41 -17t-41 17t-17 41z" />
    <glyph glyph-name="uhungarumlaut" unicode="&#xfb;" horiz-adv-x="611" 
d="M78 502v-337q0 -37 11 -68.5t33.5 -54t56.5 -35t81 -12.5q40 0 68 9.5t46 23t28.5 29.5t17.5 29l2 -86h98q0 10 -0.5 25t-1 29t-1 25t-0.5 15v408h-97v-284q0 -19 -2.5 -45t-18.5 -49q-20 -30 -51.5 -43t-66.5 -13q-36 0 -57 10.5t-32.5 26.5t-14.5 36t-3 38v323h-96z
M359 740h-104l-82 -144h65zM518 740h-104l-82 -144h65z" />
    <glyph glyph-name="uhungarumlaut" unicode="&#x171;" horiz-adv-x="611" 
d="M78 502v-337q0 -37 11 -68.5t33.5 -54t56.5 -35t81 -12.5q40 0 68 9.5t46 23t28.5 29.5t17.5 29l2 -86h98q0 10 -0.5 25t-1 29t-1 25t-0.5 15v408h-97v-284q0 -19 -2.5 -45t-18.5 -49q-20 -30 -51.5 -43t-66.5 -13q-36 0 -57 10.5t-32.5 26.5t-14.5 36t-3 38v323h-96z
M359 740h-104l-82 -144h65zM518 740h-104l-82 -144h65z" />
    <glyph glyph-name="yacute" unicode="&#xfd;" 
d="M537 502h-102l-160 -396l-157 396h-106l209 -500l-76 -192h97l72 187zM309 740l-82 -144h65l121 144h-104z" />
    <glyph glyph-name="tcommaaccent" unicode="&#xfe;" horiz-adv-x="333" 
d="M11 435h89v-335q0 -62 31 -84.5t96 -22.5q26 0 45.5 2t32.5 4v73q-6 -2 -18.5 -3.5t-26.5 -1.5q-25 0 -38.5 7t-20 17t-7.5 22t-1 21v301h112v69h-112v135l-93 -30v-105h-89v-69zM124 -51v-97h51q0 -14 -1.5 -30t-7 -30t-15.5 -24.5t-27 -14.5v-40q30 3 48.5 16.5t29 34
t14 45t3.5 50.5v90h-95z" />
    <glyph glyph-name="tcommaaccent" unicode="&#x163;" horiz-adv-x="333" 
d="M11 435h89v-335q0 -62 31 -84.5t96 -22.5q26 0 45.5 2t32.5 4v73q-6 -2 -18.5 -3.5t-26.5 -1.5q-25 0 -38.5 7t-20 17t-7.5 22t-1 21v301h112v69h-112v135l-93 -30v-105h-89v-69zM124 -51v-97h51q0 -14 -1.5 -30t-7 -30t-15.5 -24.5t-27 -14.5v-40q30 3 48.5 16.5t29 34
t14 45t3.5 50.5v90h-95z" />
    <glyph glyph-name="onehalf" horiz-adv-x="834" 
d="M146 -28h65l429 743h-64zM191 284v415h-57q-32 -25 -58 -39t-52 -26v-61q14 6 41.5 20t63.5 41v-350h62zM525 0h286v47h-214l78 70q6 5 18 16t25 24t25 24.5t17 17.5q17 20 27 35t15 27t6.5 22t1.5 20q0 30 -11 52.5t-29.5 37.5t-44 22.5t-55.5 7.5q-16 0 -39 -4
t-44.5 -16.5t-37.5 -36.5t-18 -64h68q0 5 1.5 17t8.5 24t21.5 21.5t41.5 9.5q32 0 52.5 -17.5t20.5 -49.5q0 -13 -4 -26.5t-15 -30t-31 -38t-53 -51.5l-117 -106v-55z" />
    <glyph glyph-name="Ncommaaccent" unicode="&#x145;" horiz-adv-x="778" 
d="M95 0h91v613l367 -613h128v722h-92v-597l-355 597h-139v-722zM342 -51v-97h51q0 -14 -1.5 -30t-7 -30t-15.5 -24.5t-27 -14.5v-40q30 3 48.5 16.5t29 34t14 45t3.5 50.5v90h-95z" />
    <glyph glyph-name="umacron" unicode="&#x16b;" horiz-adv-x="611" 
d="M78 502v-337q0 -37 11 -68.5t33.5 -54t56.5 -35t81 -12.5q40 0 68 9.5t46 23t28.5 29.5t17.5 29l2 -86h98q0 10 -0.5 25t-1 29t-1 25t-0.5 15v408h-97v-284q0 -19 -2.5 -45t-18.5 -49q-20 -30 -51.5 -43t-66.5 -13q-36 0 -57 10.5t-32.5 26.5t-14.5 36t-3 38v323h-96z
M167 642h275v53h-275v-53z" />
    <glyph glyph-name="Delta" unicode="&#x394;" horiz-adv-x="722" 
d="M289 692l-277 -692h652l-286 692h-89zM126 78l207 523l212 -523h-419z" />
    <glyph glyph-name="amacron" unicode="&#x101;" 
d="M479 0q-3 19 -4.5 40t-2 39t-1 31t-0.5 16l4 240q0 17 -2.5 35.5t-14.5 41.5q-10 19 -29 33t-43 23t-51.5 13.5t-54.5 4.5q-20 0 -42.5 -2.5t-44 -8.5t-41.5 -16.5t-34 -26.5q-22 -26 -27.5 -50.5t-7.5 -44.5h94q0 7 2.5 21.5t12.5 28.5t30 24.5t56 10.5q20 0 46.5 -7
t40.5 -26q7 -8 10.5 -18t5 -22.5t2 -30t0.5 -40.5q-22 2 -36 2.5t-32 0.5q-15 0 -36.5 -1t-45.5 -4.5t-48 -10t-44 -17.5q-28 -16 -45 -35.5t-26.5 -39t-13 -38.5t-3.5 -34q0 -31 11.5 -58t34 -47t55.5 -31.5t76 -11.5q16 0 35.5 2.5t40.5 12t41.5 27.5t37.5 49q0 -20 2 -38
t7 -37h85zM383 244q-1 -26 -2 -45.5t-3 -34.5t-6.5 -27t-12.5 -25q-35 -54 -107 -54q-32 0 -52 9t-31.5 22.5t-16 28.5t-4.5 27q0 38 23 59t53.5 30.5t60.5 11t44 1.5q17 0 29 -0.5t25 -2.5zM151 642h275v53h-275v-53z" />
    <glyph glyph-name=".363" unicode="&#xe002;" horiz-adv-x="667" 
d="M289 0h101v279l282 443h-112l-216 -354l-213 354h-124l282 -438v-284zM203 786h92v102h-92v-102zM392 786h93v102h-93v-102z" />
    <glyph glyph-name="scedilla" unicode="&#xba;" horiz-adv-x="500" 
d="M43 149q0 -17 3.5 -44.5t28.5 -56.5q17 -21 38 -33t42 -18.5t39 -8.5t30 -2l-49 -69l15 -17q10 4 17.5 6t18.5 2q6 0 14.5 -1t17 -5t14 -12t5.5 -21q0 -40 -53 -40q-28 0 -43.5 4.5t-23.5 9.5l-20 -37q17 -8 37.5 -14t55.5 -6q46 0 71 13t36.5 29t13.5 30.5t2 17.5
q0 11 -4 23.5t-13 23t-24 17.5t-37 7q-13 0 -22.5 -1.5t-17.5 -3.5l32 45q45 3 72.5 11.5t48.5 21.5q29 18 48.5 51.5t19.5 75.5q0 24 -8.5 48.5t-29.5 44.5q-11 10 -24 17.5t-34.5 15t-55 16t-85.5 20.5q-10 3 -22 6.5t-23 10.5t-18.5 18.5t-7.5 28.5q0 27 14 41.5t32 21.5
t34.5 8t21.5 1q13 0 30 -2t32.5 -10.5t25.5 -25t9 -44.5h96q0 16 -1.5 34t-11.5 39q-11 22 -32 37t-46 24t-52 13t-51 4q-44 0 -80 -11t-61.5 -30.5t-40 -48t-14.5 -62.5q0 -39 15.5 -64t41.5 -41t61.5 -26t74.5 -19q28 -6 49 -12t34.5 -13.5t20 -19.5t6.5 -30
q0 -26 -16 -47q-15 -19 -37 -25.5t-51 -6.5q-34 0 -55.5 9t-34 22.5t-16.5 29.5t-4 30h-99z" />
    <glyph glyph-name="scedilla" unicode="&#xf6c2;" horiz-adv-x="500" 
d="M43 149q0 -17 3.5 -44.5t28.5 -56.5q17 -21 38 -33t42 -18.5t39 -8.5t30 -2l-49 -69l15 -17q10 4 17.5 6t18.5 2q6 0 14.5 -1t17 -5t14 -12t5.5 -21q0 -40 -53 -40q-28 0 -43.5 4.5t-23.5 9.5l-20 -37q17 -8 37.5 -14t55.5 -6q46 0 71 13t36.5 29t13.5 30.5t2 17.5
q0 11 -4 23.5t-13 23t-24 17.5t-37 7q-13 0 -22.5 -1.5t-17.5 -3.5l32 45q45 3 72.5 11.5t48.5 21.5q29 18 48.5 51.5t19.5 75.5q0 24 -8.5 48.5t-29.5 44.5q-11 10 -24 17.5t-34.5 15t-55 16t-85.5 20.5q-10 3 -22 6.5t-23 10.5t-18.5 18.5t-7.5 28.5q0 27 14 41.5t32 21.5
t34.5 8t21.5 1q13 0 30 -2t32.5 -10.5t25.5 -25t9 -44.5h96q0 16 -1.5 34t-11.5 39q-11 22 -32 37t-46 24t-52 13t-51 4q-44 0 -80 -11t-61.5 -30.5t-40 -48t-14.5 -62.5q0 -39 15.5 -64t41.5 -41t61.5 -26t74.5 -19q28 -6 49 -12t34.5 -13.5t20 -19.5t6.5 -30
q0 -26 -16 -47q-15 -19 -37 -25.5t-51 -6.5q-34 0 -55.5 9t-34 22.5t-16.5 29.5t-4 30h-99z" />
    <glyph glyph-name="scedilla" unicode="&#x15f;" horiz-adv-x="500" 
d="M43 149q0 -17 3.5 -44.5t28.5 -56.5q17 -21 38 -33t42 -18.5t39 -8.5t30 -2l-49 -69l15 -17q10 4 17.5 6t18.5 2q6 0 14.5 -1t17 -5t14 -12t5.5 -21q0 -40 -53 -40q-28 0 -43.5 4.5t-23.5 9.5l-20 -37q17 -8 37.5 -14t55.5 -6q46 0 71 13t36.5 29t13.5 30.5t2 17.5
q0 11 -4 23.5t-13 23t-24 17.5t-37 7q-13 0 -22.5 -1.5t-17.5 -3.5l32 45q45 3 72.5 11.5t48.5 21.5q29 18 48.5 51.5t19.5 75.5q0 24 -8.5 48.5t-29.5 44.5q-11 10 -24 17.5t-34.5 15t-55 16t-85.5 20.5q-10 3 -22 6.5t-23 10.5t-18.5 18.5t-7.5 28.5q0 27 14 41.5t32 21.5
t34.5 8t21.5 1q13 0 30 -2t32.5 -10.5t25.5 -25t9 -44.5h96q0 16 -1.5 34t-11.5 39q-11 22 -32 37t-46 24t-52 13t-51 4q-44 0 -80 -11t-61.5 -30.5t-40 -48t-14.5 -62.5q0 -39 15.5 -64t41.5 -41t61.5 -26t74.5 -19q28 -6 49 -12t34.5 -13.5t20 -19.5t6.5 -30
q0 -26 -16 -47q-15 -19 -37 -25.5t-51 -6.5q-34 0 -55.5 9t-34 22.5t-16.5 29.5t-4 30h-99z" />
    <glyph glyph-name="Omacron" unicode="&#x14c;" horiz-adv-x="778" 
d="M59 356q0 -74 16.5 -141.5t54.5 -119t100.5 -82t154.5 -30.5q96 0 160.5 33t103 87.5t54.5 123.5t16 141q0 92 -23 161.5t-65 116.5t-102.5 71t-135.5 24q-25 0 -55.5 -4t-62 -14.5t-63.5 -29.5t-60 -49q-30 -32 -48 -69.5t-28 -75.5t-13.5 -75t-3.5 -68zM164 362
q0 55 10 108.5t36 94.5t70.5 66.5t113.5 25.5q62 0 104 -22t67.5 -60.5t36.5 -91.5t11 -114q0 -18 -2 -47t-8.5 -62t-19.5 -66t-35 -60q-32 -38 -73.5 -52t-86.5 -14q-43 0 -86 14t-74 52q-38 47 -51 107.5t-13 120.5zM250 811h275v53h-275v-53z" />
    <glyph glyph-name="commaaccent" unicode="&#xf004;" horiz-adv-x="278" 
d="M103 -148h51q0 -14 -1.5 -30t-7 -30t-15.5 -24.5t-27 -14.5v-40q30 3 48.5 16.5t29 34t14 45t3.5 50.5v90h-95v-97z" />
    <glyph glyph-name="commaaccent" unicode="&#xf6c3;" horiz-adv-x="278" 
d="M103 -148h51q0 -14 -1.5 -30t-7 -30t-15.5 -24.5t-27 -14.5v-40q30 3 48.5 16.5t29 34t14 45t3.5 50.5v90h-95v-97z" />
    <glyph glyph-name=".361" unicode="&#xe000;" horiz-adv-x="1000" 
d="M947 86h-343v243h324v83h-324v227h340v83h-460q-5 0 -18 0.5t-27 1.5q-14 0 -27.5 0.5t-18.5 0.5q-125 0 -198 -47q-44 -28 -73 -64t-46.5 -76.5t-24.5 -85t-7 -88.5q0 -93 26.5 -161.5t71.5 -113.5t103.5 -67t122.5 -22h579v86zM503 85q-18 -1 -31.5 -1.5t-24.5 -0.5
h-19h-19q-78 0 -125.5 19.5t-74.5 54.5q-18 23 -30 49.5t-19 53.5t-9.5 54t-2.5 51q0 23 2.5 50.5t10 56t21 56t35.5 50.5q11 12 26 24t36 22t49 16t65 6q26 0 49 -1.5t61 -3.5v-556z" />
    <glyph glyph-name="Emacron" unicode="&#x112;" horiz-adv-x="611" 
d="M76 0h461v88h-361v240h336v84h-336v225h353v85h-453v-722zM167 811h275v53h-275v-53z" />
    <glyph glyph-name="uogonek" unicode="&#x173;" horiz-adv-x="611" 
d="M517 502h-97v-284q0 -19 -2.5 -45t-18.5 -49q-20 -30 -51.5 -43t-66.5 -13q-36 0 -57 10.5t-32.5 26.5t-14.5 36t-3 38v323h-96v-337q0 -37 11 -68.5t33.5 -54t56.5 -35t81 -12.5q40 0 68 9.5t46 23t28.5 29.5t17.5 29l2 -86h30q-49 -22 -84 -52.5t-35 -71.5
q0 -12 4.5 -25t15.5 -24t29 -18t45 -7q34 0 55 8t39 17v41q-8 -5 -18 -8.5t-27 -3.5q-3 0 -13.5 1t-21.5 5.5t-20 14.5t-9 29q0 15 7 28t18.5 24t26 21.5t29.5 20.5h27q0 10 -0.5 25t-1 29t-1 25t-0.5 15v408z" />
    <glyph glyph-name="Thorn" horiz-adv-x="611" 
d="M88 719v-719h100v200h117q49 0 84.5 4.5t60.5 12.5t42 19.5t31 25.5q57 57 57 141q0 41 -13 76.5t-40 63.5q-16 17 -33.5 28t-40.5 18t-53 9.5t-70 2.5h-142v118h-100zM188 520h140q19 0 44.5 -2t48 -12.5t38 -33.5t15.5 -65q0 -44 -17 -69t-42 -37t-54 -14.5t-54 -2.5
h-119v236z" />
    <glyph glyph-name="Eth" horiz-adv-x="722" 
d="M88 0h203q40 0 76.5 1t69.5 6.5t63 17.5t57 34q21 16 42 42.5t38.5 63.5t28.5 84t11 106q0 75 -20.5 145.5t-68.5 127.5q-30 35 -65.5 54t-73.5 28t-77 10.5t-75 1.5h-209v-292h-70v-61h70v-369zM188 369h192v61h-192v209h120q66 0 111.5 -12.5t80.5 -50.5
q25 -28 39.5 -63t21 -67.5t8 -58.5t1.5 -36q0 -16 -2 -44t-11 -60.5t-28.5 -65.5t-53.5 -59q-36 -27 -86.5 -33.5t-102.5 -6.5h-98v287z" />
    <glyph glyph-name="emacron" unicode="&#x113;" 
d="M506 234v49t-5.5 60.5t-18.5 62t-37 55t-62.5 39.5t-94.5 15q-11 0 -27 -1t-34.5 -5t-38 -11t-37.5 -20q-59 -41 -79 -101.5t-20 -134.5q0 -119 57 -188t176 -69q38 0 66.5 7t49.5 17t35 22t22 21q27 29 34 57.5t9 47.5h-94q-6 -54 -39 -79t-79 -25q-39 0 -66.5 13.5
t-45 38t-25.5 57.5t-7 72h361zM149 300q1 42 14 70t32.5 45.5t43.5 25t47 7.5q43 0 68 -16.5t37.5 -39.5t15.5 -48.5t3 -43.5h-261zM157 642h275v53h-275v-53z" />
    <glyph glyph-name="edotaccent" unicode="&#x117;" 
d="M506 234v49t-5.5 60.5t-18.5 62t-37 55t-62.5 39.5t-94.5 15q-11 0 -27 -1t-34.5 -5t-38 -11t-37.5 -20q-59 -41 -79 -101.5t-20 -134.5q0 -119 57 -188t176 -69q38 0 66.5 7t49.5 17t35 22t22 21q27 29 34 57.5t9 47.5h-94q-6 -54 -39 -79t-79 -25q-39 0 -66.5 13.5
t-45 38t-25.5 57.5t-7 72h361zM149 300q1 42 14 70t32.5 45.5t43.5 25t47 7.5q43 0 68 -16.5t37.5 -39.5t15.5 -48.5t3 -43.5h-261zM249 617h92v102h-92v-102z" />
    <glyph glyph-name="gbreve" unicode="&#x11f;" horiz-adv-x="611" 
d="M78 -39q1 -17 3 -35.5t9 -36.5t20 -34.5t36 -28.5t58 -19.5t85 -7.5q26 0 56 3t58.5 12t53.5 27t41 48q7 14 12 31.5t7.5 41.5t3.5 57t1 78l1 314l2 91h-91l-1 -69q-8 10 -19 23t-29.5 25t-45 20t-64.5 8q-46 0 -86.5 -15.5t-71 -47t-48 -79t-17.5 -111.5q0 -51 12.5 -99
t44.5 -86q16 -20 35.5 -32t40 -18.5t41 -9t37.5 -2.5q11 0 32.5 1.5t46 10t48 25.5t38.5 48q0 -51 -2.5 -93.5t-15 -73t-39.5 -47.5t-76 -17q-33 0 -55 7.5t-35.5 20.5t-19.5 31t-7 39h-100zM287 79q-43 0 -70 17t-42 43.5t-20.5 58t-5.5 60.5q0 24 4.5 55.5t18.5 60
t40.5 48.5t71.5 20q32 0 60.5 -12t47.5 -32t29 -48.5t10 -76.5q0 -34 -2.5 -57t-7 -39t-11 -27t-13.5 -21q-17 -23 -42.5 -36.5t-67.5 -13.5zM169 751q0 -14 2 -40.5t15 -52.5t40.5 -45t77.5 -19q70 0 105.5 40t33.5 117h-47q0 -7 -2.5 -22.5t-12 -31.5t-27.5 -28t-50 -12
q-45 0 -65.5 25.5t-22.5 68.5h-47z" />
    <glyph glyph-name="threequarters" horiz-adv-x="834" 
d="M747 0v90h66v49h-66v282h-70l-195 -260v-71h203v-90h62zM532 139l154 218v-218h-154zM176 -28h65l429 743h-65zM12 390q1 -14 4.5 -33.5t21.5 -39.5q13 -14 28.5 -22.5t31.5 -13t32 -6.5t29 -2q37 0 67 10t50 27t31 39t11 47q0 3 -1.5 17t-10.5 31t-28.5 32.5t-55.5 20.5
q26 5 43 16t27.5 25t15 28.5t4.5 27.5q0 21 -9 41.5t-27.5 36t-46 25t-64.5 9.5q-21 0 -46 -5t-47 -17.5t-37 -34.5t-16 -56h66q2 30 24.5 48t57.5 18q13 0 27 -2.5t25.5 -10t19 -20.5t7.5 -33q0 -29 -16 -44t-37 -21.5t-40.5 -7t-26.5 0.5v-49q12 1 33.5 0.5t42 -7
t36 -22.5t15.5 -46q0 -28 -21 -51.5t-67 -23.5q-39 0 -62 17.5t-22 50.5h-69z" />
    <glyph glyph-name="fraction" unicode="&#x2215;" horiz-adv-x="167" 
d="M-168 -28h65l429 743h-64z" />
    <glyph glyph-name="Edotaccent" unicode="&#x116;" horiz-adv-x="611" 
d="M76 0h461v88h-361v240h336v84h-336v225h353v85h-453v-722zM260 786h92v102h-92v-102z" />
    <glyph glyph-name="Amacron" unicode="&#x100;" horiz-adv-x="722" 
d="M9 0h103l78 188h335l78 -188h109l-292 722h-107zM362 623l133 -354h-273zM222 811h275v53h-275v-53z" />
    <glyph glyph-name="imacron" unicode="&#x12b;" horiz-adv-x="278" 
d="M89 0h94v502h-94v-502zM0 642h275v53h-275v-53z" />
    <glyph glyph-name="Rcommaaccent" unicode="&#x156;" horiz-adv-x="667" 
d="M86 0h99v326h126q45 0 74 -6.5t46 -22t25 -41.5t13 -65q3 -21 6 -46.5t7 -51.5t9 -50.5t11 -42.5h107q-11 30 -17.5 57.5t-11.5 54.5t-8.5 55l-7.5 60q-4 34 -12 57.5t-21 39t-32 25.5t-45 17q17 5 39.5 14.5t45.5 32.5q24 24 37.5 57t13.5 71q0 44 -19.5 82.5
t-60.5 64.5q-20 13 -43 20t-46 10t-43 3.5t-34 0.5h-258v-722zM183 638h158q15 0 39.5 -2t47.5 -13t40 -34.5t17 -67.5q0 -23 -5.5 -39t-13.5 -27.5t-16.5 -18t-13.5 -9.5q-10 -6 -24.5 -9.5t-29 -5t-26.5 -1.5h-15h-158v227zM287 -51v-97h51q0 -14 -1.5 -30t-7 -30
t-15.5 -24.5t-27 -14.5v-40q30 3 48.5 16.5t29 34t14 45t3.5 50.5v90h-95z" />
    <glyph glyph-name="Umacron" unicode="&#x16a;" horiz-adv-x="778" 
d="M93 722v-440q0 -41 3.5 -70t9.5 -50t13.5 -35.5t15.5 -26.5q25 -36 58.5 -58.5t68.5 -35t68.5 -17t59.5 -4.5q19 0 48 3t61.5 13.5t64.5 30.5t59 53q22 27 34 55t17.5 53.5t6.5 47t1 36.5v445h-97v-443q0 -20 -3 -54t-21.5 -68t-58 -58.5t-112.5 -24.5q-19 0 -40.5 2.5
t-43.5 10.5t-43 21.5t-38 36.5q-6 8 -11.5 18.5t-10 25.5t-7.5 36t-3 50v447h-100zM250 811h275v53h-275v-53z" />
    <glyph glyph-name="rcommaaccent" unicode="&#x157;" horiz-adv-x="389" 
d="M93 0h95v267q0 32 6 60t21 48.5t41.5 32t68.5 11.5h15t12 -1q12 -2 18 -4v92q-12 1 -28 1t-37 -3q-16 -2 -34 -8t-35 -17.5t-30.5 -29.5t-20.5 -44l-2 97h-95q2 -25 3.5 -50.5t1.5 -51.5v-400zM93 -51v-97h51q0 -14 -1.5 -30t-7 -30t-15.5 -24.5t-27 -14.5v-40
q30 3 48.5 16.5t29 34t14 45t3.5 50.5v90h-95z" />
    <glyph glyph-name="Scedilla" unicode="&#xaa;" horiz-adv-x="667" 
d="M56 211q0 -45 10.5 -84.5t37.5 -69.5t74 -49.5t120 -24.5l-47 -66l15 -17q9 4 17 6t19 2q6 0 14.5 -1t17 -5t14 -12t5.5 -21q0 -20 -14 -30t-40 -10q-27 0 -43 4.5t-24 9.5l-20 -37q17 -8 38 -14t56 -6q45 0 70 13t37 29t14 30.5t2 17.5q0 11 -4 23.5t-13.5 23
t-24.5 17.5t-37 7q-13 0 -22 -1.5t-17 -3.5l29 41q56 4 90 13t58 21q38 19 61.5 44.5t36 51.5t17 51t4.5 44q0 11 -2 29t-9 38t-21.5 40t-39.5 37q-16 10 -30 17t-37.5 14.5t-62.5 17.5t-103 27q-33 8 -57.5 16.5t-40.5 20.5t-24 29t-8 41q0 54 42.5 85.5t117.5 31.5
q27 0 53 -4.5t47.5 -16.5t35.5 -33.5t16 -55.5h104q-1 11 -2 25.5t-5.5 30.5t-13 33t-23.5 34q-22 24 -49.5 38t-55.5 21.5t-54 9.5t-44 2q-51 0 -100.5 -12.5t-88 -38t-62.5 -65.5t-24 -95q0 -36 15.5 -74t59.5 -68q14 -9 31 -16.5t40 -14.5t53.5 -15t71.5 -18
q38 -9 68.5 -18t52.5 -22t33.5 -32.5t11.5 -49.5q0 -14 -5.5 -35.5t-23 -42.5t-51 -36t-89.5 -15q-62 0 -97 15.5t-51.5 37.5t-20.5 46.5t-5 43.5h-104z" />
    <glyph glyph-name="Scedilla" unicode="&#xf6c1;" horiz-adv-x="667" 
d="M56 211q0 -45 10.5 -84.5t37.5 -69.5t74 -49.5t120 -24.5l-47 -66l15 -17q9 4 17 6t19 2q6 0 14.5 -1t17 -5t14 -12t5.5 -21q0 -20 -14 -30t-40 -10q-27 0 -43 4.5t-24 9.5l-20 -37q17 -8 38 -14t56 -6q45 0 70 13t37 29t14 30.5t2 17.5q0 11 -4 23.5t-13.5 23
t-24.5 17.5t-37 7q-13 0 -22 -1.5t-17 -3.5l29 41q56 4 90 13t58 21q38 19 61.5 44.5t36 51.5t17 51t4.5 44q0 11 -2 29t-9 38t-21.5 40t-39.5 37q-16 10 -30 17t-37.5 14.5t-62.5 17.5t-103 27q-33 8 -57.5 16.5t-40.5 20.5t-24 29t-8 41q0 54 42.5 85.5t117.5 31.5
q27 0 53 -4.5t47.5 -16.5t35.5 -33.5t16 -55.5h104q-1 11 -2 25.5t-5.5 30.5t-13 33t-23.5 34q-22 24 -49.5 38t-55.5 21.5t-54 9.5t-44 2q-51 0 -100.5 -12.5t-88 -38t-62.5 -65.5t-24 -95q0 -36 15.5 -74t59.5 -68q14 -9 31 -16.5t40 -14.5t53.5 -15t71.5 -18
q38 -9 68.5 -18t52.5 -22t33.5 -32.5t11.5 -49.5q0 -14 -5.5 -35.5t-23 -42.5t-51 -36t-89.5 -15q-62 0 -97 15.5t-51.5 37.5t-20.5 46.5t-5 43.5h-104z" />
    <glyph glyph-name="Scedilla" unicode="&#x15e;" horiz-adv-x="667" 
d="M56 211q0 -45 10.5 -84.5t37.5 -69.5t74 -49.5t120 -24.5l-47 -66l15 -17q9 4 17 6t19 2q6 0 14.5 -1t17 -5t14 -12t5.5 -21q0 -20 -14 -30t-40 -10q-27 0 -43 4.5t-24 9.5l-20 -37q17 -8 38 -14t56 -6q45 0 70 13t37 29t14 30.5t2 17.5q0 11 -4 23.5t-13.5 23
t-24.5 17.5t-37 7q-13 0 -22 -1.5t-17 -3.5l29 41q56 4 90 13t58 21q38 19 61.5 44.5t36 51.5t17 51t4.5 44q0 11 -2 29t-9 38t-21.5 40t-39.5 37q-16 10 -30 17t-37.5 14.5t-62.5 17.5t-103 27q-33 8 -57.5 16.5t-40.5 20.5t-24 29t-8 41q0 54 42.5 85.5t117.5 31.5
q27 0 53 -4.5t47.5 -16.5t35.5 -33.5t16 -55.5h104q-1 11 -2 25.5t-5.5 30.5t-13 33t-23.5 34q-22 24 -49.5 38t-55.5 21.5t-54 9.5t-44 2q-51 0 -100.5 -12.5t-88 -38t-62.5 -65.5t-24 -95q0 -36 15.5 -74t59.5 -68q14 -9 31 -16.5t40 -14.5t53.5 -15t71.5 -18
q38 -9 68.5 -18t52.5 -22t33.5 -32.5t11.5 -49.5q0 -14 -5.5 -35.5t-23 -42.5t-51 -36t-89.5 -15q-62 0 -97 15.5t-51.5 37.5t-20.5 46.5t-5 43.5h-104z" />
    <glyph glyph-name="eth" horiz-adv-x="611" 
d="M124 598l36 -35l96 57q66 -46 110.5 -90.5t72.5 -94.5q-8 9 -19.5 21.5t-29.5 23.5t-43 18.5t-59 7.5q-40 0 -81.5 -14t-75.5 -45t-55.5 -81t-21.5 -122q0 -66 19 -115t52.5 -81.5t78.5 -48.5t98 -16q62 0 110 20.5t80.5 58.5t49 91t16.5 118q0 84 -24 148t-58.5 111.5
t-73 80.5t-68.5 56l90 52l-36 36l-99 -58q-19 12 -32.5 20.5t-24 15.5t-21 12.5t-23.5 12.5l-62 -59q7 -4 15 -8t17.5 -9.5t22 -13t29.5 -18.5zM307 54q-39 0 -67.5 15.5t-47 42.5t-28 62.5t-9.5 74.5q0 49 11.5 85.5t32.5 60.5t49.5 36t61.5 12q69 0 108.5 -49.5
t39.5 -142.5q0 -58 -15 -96t-37.5 -60.5t-49 -31.5t-49.5 -9z" />
    <glyph glyph-name="Uogonek" unicode="&#x172;" horiz-adv-x="778" 
d="M682 722h-97v-443q0 -20 -3 -54t-21.5 -68t-58 -58.5t-112.5 -24.5q-19 0 -40.5 2.5t-43.5 10.5t-43 21.5t-38 36.5q-6 8 -11.5 18.5t-10 25.5t-7.5 36t-3 50v447h-100v-440q0 -41 3.5 -70t9.5 -50t13.5 -35.5t15.5 -26.5q25 -36 58.5 -58.5t68.5 -35t68.5 -17t59.5 -4.5
h10q6 0 13 1q13 1 30 3q-42 -21 -70 -48.5t-28 -64.5q0 -12 4.5 -25t15.5 -24t29 -18t45 -7q34 0 55 8t39 17v41q-8 -5 -18 -8.5t-27 -3.5q-3 0 -13.5 1t-21.5 5.5t-20 14.5t-9 29q0 16 8 29.5t20.5 25.5t29 22.5t34.5 19.5q31 15 57.5 34t49.5 48q22 27 34 55t17.5 53.5
t6.5 47t1 36.5v445z" />
    <glyph glyph-name="Gbreve" unicode="&#x11e;" horiz-adv-x="778" 
d="M686 542q-1 10 -2.5 23t-6 28t-14 31t-25.5 33q-26 26 -54.5 41.5t-56.5 23.5t-54.5 10t-47.5 2q-14 0 -37 -1t-50.5 -6.5t-57 -15.5t-56.5 -28q-51 -35 -82 -81t-47 -93.5t-21 -90t-5 -69.5q0 -77 23.5 -149t77.5 -126q38 -39 100 -64.5t162 -25.5q46 0 86 5t73 12
t57.5 14.5t40.5 12.5v356h-265v-83h165v-214q-17 -5 -56 -14t-101 -9q-27 0 -54 3.5t-51.5 11.5t-46.5 22t-40 34q-20 24 -32.5 53.5t-20 60.5t-10.5 60.5t-3 52.5q0 25 3 55t11.5 60.5t23.5 60.5t39 56q29 32 70.5 46.5t92.5 14.5q74 0 114.5 -31t48.5 -82h109zM252 920
q0 -14 2 -40.5t15 -52.5t40.5 -45t77.5 -19q70 0 105.5 40t33.5 117h-47q0 -7 -2.5 -22.5t-12 -31.5t-27.5 -28t-50 -12q-45 0 -65.5 25.5t-22.5 68.5h-47z" />
    <glyph glyph-name="onesuperior" horiz-adv-x="333" 
d="M225 284v415h-58q-32 -25 -57.5 -39t-51.5 -26v-61q14 6 41.5 20t63.5 41v-350h62z" />
    <glyph glyph-name="iogonek" unicode="&#x12f;" horiz-adv-x="278" 
d="M79 617h113v103h-113v-103zM183 502h-94v-502h27q-49 -22 -84 -52.5t-35 -71.5q0 -12 4.5 -25t15.5 -24t29 -18t45 -7q34 0 55 8t39 17v41q-8 -5 -18 -8.5t-27 -3.5q-3 0 -13.5 1t-21.5 5.5t-20 14.5t-9 29q0 15 7 28t18.5 24t26 21.5t29.5 20.5h26v502z" />
    <glyph glyph-name="threesuperior" horiz-adv-x="333" 
d="M12 390q1 -14 4 -33.5t22 -39.5q25 -27 59.5 -35.5t61.5 -8.5q37 0 67 10t50 27t31 39t11 47q0 3 -1.5 17t-10.5 31t-28.5 32.5t-55.5 20.5q26 5 43 16t27.5 25t15 28.5t4.5 27.5q0 21 -9 41.5t-27.5 36t-46 25t-64.5 9.5q-21 0 -46.5 -5t-47 -17.5t-36.5 -34.5t-16 -56
h66q2 30 24.5 48t57.5 18q12 0 26 -2.5t26 -10t19.5 -20.5t7.5 -33q0 -29 -16 -44t-37 -21.5t-40.5 -7t-26.5 0.5v-49q12 1 33 0.5t42 -7t36.5 -22.5t15.5 -46q0 -28 -21 -51.5t-67 -23.5q-39 0 -62 17.5t-23 50.5h-68z" />
    <glyph glyph-name="Lcommaaccent" unicode="&#x13b;" 
d="M93 0h435v89h-336v633h-99v-722zM231 -51v-97h51q0 -14 -1.5 -30t-7 -30t-15.5 -24.5t-27 -14.5v-40q30 3 48.5 16.5t29 34t14 45t3.5 50.5v90h-95z" />
    <glyph glyph-name="thorn" horiz-adv-x="611" 
d="M85 -193h93v249q20 -33 59.5 -54t94.5 -21q45 0 86.5 15.5t73 48.5t50.5 84t19 121t-18 119t-47 80.5t-67.5 46t-78.5 14.5q-15 0 -37 -3t-46 -13t-47 -27.5t-41 -47.5v302h-94v-914zM175 236q0 17 2.5 51t16.5 68t44.5 59.5t86.5 25.5q42 0 68.5 -16t42 -42t21.5 -59
t6 -67q0 -14 -1.5 -33t-5.5 -40.5t-12.5 -43.5t-21.5 -40q-12 -17 -26.5 -26.5t-29.5 -14.5t-28 -6.5t-22 -1.5q-50 0 -78 20.5t-42 49.5t-17.5 61t-3.5 55z" />
    <glyph glyph-name="Iogonek" unicode="&#x12e;" horiz-adv-x="278" 
d="M188 0v722h-100v-722h34q-49 -22 -84 -52.5t-35 -71.5q0 -12 4.5 -25t15.5 -24t29 -18t45 -7q34 0 55 8t39 17v41q-8 -5 -18 -8.5t-27 -3.5q-3 0 -13.5 1t-21.5 5.5t-20 14.5t-9 29q0 15 7 28t18.5 24t26 21.5t29.5 20.5h25z" />
    <glyph glyph-name="minus" unicode="&#x2212;" horiz-adv-x="584" 
d="M37 212h510v78h-510v-78z" />
    <glyph glyph-name=".362" unicode="&#xe001;" horiz-adv-x="944" 
d="M795 155q-5 -45 -35.5 -73t-77.5 -28q-32 0 -64 16t-50 48q-8 14 -13 30.5t-7 32.5t-2.5 30t-0.5 23h350q1 26 0 57t-9 68q-6 29 -21 57t-40 49.5t-59.5 35t-79.5 13.5q-12 0 -37.5 -2.5t-54.5 -15t-56 -38t-42 -70.5q-6 13 -18.5 34t-34 41t-55.5 34t-84 14
q-61 0 -108 -21.5t-79 -58.5t-48.5 -85t-16.5 -100q0 -43 13 -89t42 -84.5t76 -63t116 -24.5q92 0 150 53q20 19 30 36.5t16 29.5q7 -14 18 -33.5t35 -39.5q28 -23 63.5 -35t74.5 -12q23 0 55 6.5t62.5 25t54 52t29.5 87.5h-92zM548 303q1 17 5 42t20 48t43 38.5t66 15.5
q40 0 63.5 -16t35.5 -40q13 -25 14.5 -50.5t1.5 -37.5h-249zM154 254q0 31 7 64t24.5 60.5t46.5 45.5t74 18q41 0 69 -17t45.5 -44t25 -61.5t7.5 -70.5q0 -32 -7 -66.5t-24 -63.5t-45.5 -47.5t-71.5 -18.5q-45 0 -70.5 16t-38.5 33q-15 19 -23 42.5t-12.5 45t-5.5 39
t-1 25.5z" />
    <glyph glyph-name="ncommaaccent" unicode="&#x146;" horiz-adv-x="611" 
d="M91 0h94v289q0 38 11 66t29 47t41.5 28t49.5 9q24 0 47.5 -8.5t41.5 -25.5q17 -17 22 -39t5 -47v-319h96v341q0 58 -22 92t-52 51.5t-60.5 22.5t-47.5 5q-43 0 -72 -11.5t-47.5 -26.5t-28 -30t-13.5 -23l-1 81h-94l1 -58v-444zM259 -51v-97h51q0 -14 -1.5 -30t-7 -30
t-15.5 -24.5t-27 -14.5v-40q30 3 48.5 16.5t29 34t14 45t3.5 50.5v90h-95z" />
    <glyph glyph-name="gcommaaccent" unicode="&#x123;" horiz-adv-x="611" 
d="M78 -39q1 -17 3 -35.5t9 -36.5t20 -34.5t36 -28.5t58 -19.5t85 -7.5q26 0 56 3t58.5 12t53.5 27t41 48q7 14 12 31.5t7.5 41.5t3.5 57t1 78l1 314l2 91h-91l-1 -69q-8 10 -19 23t-29.5 25t-45 20t-64.5 8q-46 0 -86.5 -15.5t-71 -47t-48 -79t-17.5 -111.5q0 -51 12.5 -99
t44.5 -86q16 -20 35.5 -32t40 -18.5t41 -9t37.5 -2.5q11 0 32.5 1.5t46 10t48 25.5t38.5 48q0 -51 -2.5 -93.5t-15 -73t-39.5 -47.5t-76 -17q-33 0 -55 7.5t-35.5 20.5t-19.5 31t-7 39h-100zM287 79q-43 0 -70 17t-42 43.5t-20.5 58t-5.5 60.5q0 24 4.5 55.5t18.5 60
t40.5 48.5t71.5 20q32 0 60.5 -12t47.5 -32t29 -48.5t10 -76.5q0 -34 -2.5 -57t-7 -39t-11 -27t-13.5 -21q-17 -23 -42.5 -36.5t-67.5 -13.5zM348 596v97h-51q0 14 1.5 30t7 30t15.5 24.5t27 14.5v40q-30 -3 -48.5 -16.5t-29 -34t-14 -45t-3.5 -50.5v-90h95z" />
    <glyph glyph-name="twosuperior" horiz-adv-x="333" 
d="M24 284h286v47h-214l78 69q6 5 18 16.5t25 24t25 24.5t17 18q17 20 27 35t15 27t6.5 22t1.5 19q0 30 -11 52.5t-29.5 37.5t-44 22.5t-55.5 7.5q-16 0 -39 -4t-44.5 -16.5t-37.5 -36t-18 -63.5h68q0 5 1.5 17t8.5 24t21.5 21.5t41.5 9.5q32 0 52.5 -17.5t20.5 -49.5
q0 -14 -4 -27.5t-15 -30t-31 -38t-53 -50.5l-117 -107v-54z" />
    <glyph glyph-name="lcommaaccent" unicode="&#x13c;" horiz-adv-x="278" 
d="M90 0h94v721h-94v-721zM92 -51v-97h51q0 -14 -1.5 -30t-7 -30t-15.5 -24.5t-27 -14.5v-40q30 3 48.5 16.5t29 34t14 45t3.5 50.5v90h-95z" />
    <glyph glyph-name="Imacron" unicode="&#x12a;" horiz-adv-x="278" 
d="M88 0h100v722h-100v-722zM0 811h275v53h-275v-53z" />
    <glyph glyph-name="Idotaccent" unicode="&#x130;" horiz-adv-x="278" 
d="M88 0h100v722h-100v-722zM93 786h92v102h-92v-102z" />
    <glyph glyph-name="Kcommaaccent" unicode="&#x136;" horiz-adv-x="667" 
d="M93 0h99v383l333 -383h140l-358 399l323 323h-137l-301 -316v316h-99v-722zM287 -51v-97h51q0 -14 -1.5 -30t-7 -30t-15.5 -24.5t-27 -14.5v-40q30 3 48.5 16.5t29 34t14 45t3.5 50.5v90h-95z" />
    <glyph glyph-name="onequarter" horiz-adv-x="834" 
d="M736 0v90h66v49h-66v282h-70l-195 -260v-71h203v-90h62zM520 139l155 218v-218h-155zM146 -28h65l429 743h-64zM191 284v415h-57q-32 -25 -58 -39t-52 -26v-61q14 6 41.5 20t63.5 41v-350h62z" />
    <glyph glyph-name="Gcommaaccent" unicode="&#x122;" horiz-adv-x="778" 
d="M686 542q-1 10 -2.5 23t-6 28t-14 31t-25.5 33q-26 26 -54.5 41.5t-56.5 23.5t-54.5 10t-47.5 2q-14 0 -37 -1t-50.5 -6.5t-57 -15.5t-56.5 -28q-51 -35 -82 -81t-47 -93.5t-21 -90t-5 -69.5q0 -77 23.5 -149t77.5 -126q38 -39 100 -64.5t162 -25.5q46 0 86 5t73 12
t57.5 14.5t40.5 12.5v356h-265v-83h165v-214q-17 -5 -56 -14t-101 -9q-27 0 -54 3.5t-51.5 11.5t-46.5 22t-40 34q-20 24 -32.5 53.5t-20 60.5t-10.5 60.5t-3 52.5q0 25 3 55t11.5 60.5t23.5 60.5t39 56q29 32 70.5 46.5t92.5 14.5q74 0 114.5 -31t48.5 -82h109zM360 -51
v-97h51q0 -14 -1.5 -30t-7 -30t-15.5 -24.5t-27 -14.5v-40q30 3 48.5 16.5t29 34t14 45t3.5 50.5v90h-95z" />
    <glyph glyph-name="omacron" unicode="&#x14d;" horiz-adv-x="611" 
d="M51 245q0 -55 15 -103t46 -83t77.5 -55.5t108.5 -20.5q64 0 112 21.5t79.5 58t47 85.5t15.5 104q0 39 -10 85t-37.5 85.5t-75.5 66t-123 26.5q-74 0 -123 -25t-78.5 -64t-41.5 -87t-12 -94zM149 251q0 59 16 97t40 59.5t51 30t50 8.5q66 0 106 -48.5t40 -142.5
q0 -57 -14 -95.5t-35.5 -62t-48.5 -34t-54 -10.5q-40 0 -68.5 16.5t-47 44t-27 63t-8.5 74.5zM179 642h275v53h-275v-53z" />
    <glyph glyph-name="kcommaaccent" unicode="&#x137;" horiz-adv-x="500" 
d="M81 0h93v271l201 -271h123l-225 289l212 213h-123l-188 -205v430h-93v-727zM203 -51v-97h51q0 -14 -1.5 -30t-7 -30t-15.5 -24.5t-27 -14.5v-40q30 3 48.5 16.5t29 34t14 45t3.5 50.5v90h-95z" />
    <glyph glyph-name=".E003h" unicode="&#xe003;" horiz-adv-x="584" 
d="M37 314h430v-203h80v280h-510v-77z" />
    </font>
</defs>
</svg>
